Поиск

(Post-Bop, Modern Creative) Kenny Garrett - Pushing the World Away - 2013, FLAC (tracks+.cue), lossless

(Post-Bop, Modern Creative) Kenny Garrett - Pushing the World Away - 2013, FLAC (tracks+.cue), lossless
Треклист:
Kenny Garrett - Pushing the World Away
Жанр: Post-Bop, Modern Creative
Страна-производитель диска: США
Год издания: 2013
Издатель (лейбл): Mack Avenue
Номер по каталогу: MAC1078
Аудиокодек: FLAC (*.flac)
Тип рипа: tracks+.cue
Битрейт аудио: lossless
Продолжительность: 72:15
Источник (релизер): icefest (what)
Наличие сканов в содержимом раздачи: нет
Треклист:
01. A Side Order of Hijiki (Garrett) - 3:45
02. Hey, Chick (Garrett) - 6:05
03. Chucho's Mambo (Garrett) - 7:46
04. Lincoln Center (Garrett) - 6:27
05. J'ouvert (Homage to Sonny Rollins) (Garrett) - 4:55
06. That's It (Garrett) - 5:00
07. I Say a Little Prayer (David-Bacharach) - 4:30
08. Pushing the World Away (Garrett) - 9:12
09. Homma San (Garrett) - 4:39
10. Brother Brown (Garrett) - 5:48
11. Alpha Man (Garrett) - 8:42
12. Rotation (Garrett) - 5:26
 
Лог создания рипа
Exact Audio Copy V1.0 beta 3 from 29. August 2011
EAC extraction logfile from 24. October 2013, 18:57
Kenny Garrett / Pushing the World Away
Used drive : PIONEER BD-RW BDR-206 Adapter: 2 ID: 0
Read mode : Secure
Utilize accurate stream : Yes
Defeat audio cache : Yes
Make use of C2 pointers : No
Read offset correction : 667
Overread into Lead-In and Lead-Out : No
Fill up missing offset samples with silence : Yes
Delete leading and trailing silent blocks : No
Null samples used in CRC calculations : Yes
Used interface : Native Win32 interface for Win NT & 2000
Gap handling : Appended to previous track
Used output format : User Defined Encoder
Selected bitrate : 1024 kBit/s
Quality : High
Add ID3 tag : No
Command line compressor : C:\Program Files (x86)\Exact Audio Copy\Flac\flac.exe
Additional command line options : -8 -V -T "ARTIST=%artist%" -T "TITLE=%title%" -T "ALBUM=%albumtitle%" -T "DATE=%year%" -T "TRACKNUMBER=%tracknr%" -T "GENRE=%genre%" -T "PERFORMER=%albuminterpret%" -T "COMPOSER=%composer%" %haslyrics%--tag-from-file=LYRICS="%lyricsfile%"%haslyrics% -T "ALBUMARTIST=%albumartist%" -T "DISCNUMBER=%cdnumber%" -T "TOTALDISCS=%totalcds%" -T "TOTALTRACKS=%numtracks%" -T "COMMENT=%comment%" %source% -o %dest%
TOC of the extracted CD
Track | Start | Length | Start sector | End sector
---------------------------------------------------------
1 | 0:00.00 | 3:44.45 | 0 | 16844
2 | 3:44.45 | 6:05.20 | 16845 | 44239
3 | 9:49.65 | 7:45.63 | 44240 | 79177
4 | 17:35.53 | 6:26.60 | 79178 | 108187
5 | 24:02.38 | 4:54.49 | 108188 | 130286
6 | 28:57.12 | 4:59.49 | 130287 | 152760
7 | 33:56.61 | 4:29.62 | 152761 | 172997
8 | 38:26.48 | 9:12.03 | 172998 | 214400
9 | 47:38.51 | 4:38.47 | 214401 | 235297
10 | 52:17.23 | 5:47.47 | 235298 | 261369
11 | 58:04.70 | 8:42.34 | 261370 | 300553
12 | 66:47.29 | 5:25.50 | 300554 | 324978
Track 1
Filename C:\Program Files (x86)\Exact Audio Copy\Flac\Kenny Garrett - Pushing The World Away (2013) [FLAC]\01 - A Side Order of Hijiki.wav
Pre-gap length 0:00:02.00
Peak level 100.0 %
Extraction speed 1.1 X
Track quality 100.0 %
Test CRC 7013F208
Copy CRC 7013F208
Accurately ripped (confidence 1) [78C59BAF] (AR v2)
Copy OK
Track 2
Filename C:\Program Files (x86)\Exact Audio Copy\Flac\Kenny Garrett - Pushing The World Away (2013) [FLAC]\02 - Hey, Chick.wav
Peak level 100.0 %
Extraction speed 1.4 X
Track quality 100.0 %
Test CRC 98927DDC
Copy CRC 98927DDC
Accurately ripped (confidence 1) [53340E69] (AR v2)
Copy OK
Track 3
Filename C:\Program Files (x86)\Exact Audio Copy\Flac\Kenny Garrett - Pushing The World Away (2013) [FLAC]\03 - Chucho's Mambo.wav
Peak level 100.0 %
Extraction speed 1.6 X
Track quality 100.0 %
Test CRC 7A47D203
Copy CRC 7A47D203
Accurately ripped (confidence 1) [A84E55A0] (AR v2)
Copy OK
Track 4
Filename C:\Program Files (x86)\Exact Audio Copy\Flac\Kenny Garrett - Pushing The World Away (2013) [FLAC]\04 - Lincoln Center.wav
Peak level 100.0 %
Extraction speed 1.5 X
Track quality 100.0 %
Test CRC 5F74D8D5
Copy CRC 5F74D8D5
Accurately ripped (confidence 1) [647D8B42] (AR v2)
Copy OK
Track 5
Filename C:\Program Files (x86)\Exact Audio Copy\Flac\Kenny Garrett - Pushing The World Away (2013) [FLAC]\05 - J'ouvert (Homage to Sonny Rollins).wav
Peak level 100.0 %
Extraction speed 1.8 X
Track quality 100.0 %
Test CRC 4304C624
Copy CRC 4304C624
Accurately ripped (confidence 1) [DA64E9A0] (AR v2)
Copy OK
Track 6
Filename C:\Program Files (x86)\Exact Audio Copy\Flac\Kenny Garrett - Pushing The World Away (2013) [FLAC]\06 - That's it.wav
Peak level 96.6 %
Extraction speed 1.7 X
Track quality 100.0 %
Test CRC BF02242A
Copy CRC BF02242A
Accurately ripped (confidence 1) [59BB8D8E] (AR v2)
Copy OK
Track 7
Filename C:\Program Files (x86)\Exact Audio Copy\Flac\Kenny Garrett - Pushing The World Away (2013) [FLAC]\07 - I Say a Little Prayer.wav
Peak level 100.0 %
Extraction speed 1.9 X
Track quality 100.0 %
Test CRC 97996046
Copy CRC 97996046
Accurately ripped (confidence 1) [4871CAFC] (AR v2)
Copy OK
Track 8
Filename C:\Program Files (x86)\Exact Audio Copy\Flac\Kenny Garrett - Pushing The World Away (2013) [FLAC]\08 - Pushing the World Away.wav
Peak level 100.0 %
Extraction speed 2.2 X
Track quality 100.0 %
Test CRC 644CB2B1
Copy CRC 644CB2B1
Accurately ripped (confidence 1) [92947CAF] (AR v2)
Copy OK
Track 9
Filename C:\Program Files (x86)\Exact Audio Copy\Flac\Kenny Garrett - Pushing The World Away (2013) [FLAC]\09 - Homma San.wav
Peak level 100.0 %
Extraction speed 2.1 X
Track quality 100.0 %
Test CRC 89F4C7D2
Copy CRC 89F4C7D2
Accurately ripped (confidence 1) [6E803FE8] (AR v2)
Copy OK
Track 10
Filename C:\Program Files (x86)\Exact Audio Copy\Flac\Kenny Garrett - Pushing The World Away (2013) [FLAC]\10 - Brother Brown.wav
Peak level 96.3 %
Extraction speed 2.2 X
Track quality 100.0 %
Test CRC F6611867
Copy CRC F6611867
Accurately ripped (confidence 1) [F9FF06AB] (AR v2)
Copy OK
Track 11
Filename C:\Program Files (x86)\Exact Audio Copy\Flac\Kenny Garrett - Pushing The World Away (2013) [FLAC]\11 - Alpha Man.wav
Peak level 100.0 %
Extraction speed 2.4 X
Track quality 100.0 %
Test CRC 716A805C
Copy CRC 716A805C
Accurately ripped (confidence 1) [A262D2B2] (AR v2)
Copy OK
Track 12
Filename C:\Program Files (x86)\Exact Audio Copy\Flac\Kenny Garrett - Pushing The World Away (2013) [FLAC]\12 - Rotation.wav
Peak level 100.0 %
Extraction speed 2.5 X
Track quality 100.0 %
Test CRC 20A63467
Copy CRC 20A63467
Accurately ripped (confidence 1) [24070027] (AR v2)
Copy OK
All tracks accurately ripped
No errors occurred
End of status report
---- CUETools DB Plugin V2.1.3
[CTDB TOCID: w95dgM238FLTjp8Pu9YJeDpprtQ-] found, Submit result: w95dgM238FLTjp8Pu9YJeDpprtQ- has been confirmed
[bcfc5294] (1/1) Accurately ripped
==== Log checksum 7E936804AB39A0AE48FCA8E6B55BFEA82C86DAD6AE0DF2F014C59C7813F76618 ====
 
Содержание индексной карты (.CUE)
REM GENRE Jazz
REM DATE 2013
REM DISCID A510ED0C
REM COMMENT "ExactAudioCopy v1.0b3"
PERFORMER "Kenny Garrett"
TITLE "Pushing the World Away"
FILE "01 - A Side Order of Hijiki.wav" WAVE
TRACK 01 AUDIO
TITLE "A Side Order of Hijiki"
PERFORMER "Kenny Garrett"
INDEX 01 00:00:00
FILE "02 - Hey, Chick.wav" WAVE
TRACK 02 AUDIO
TITLE "Hey, Chick"
PERFORMER "Kenny Garrett"
INDEX 01 00:00:00
FILE "03 - Chucho's Mambo.wav" WAVE
TRACK 03 AUDIO
TITLE "Chucho's Mambo"
PERFORMER "Kenny Garrett"
INDEX 01 00:00:00
FILE "04 - Lincoln Center.wav" WAVE
TRACK 04 AUDIO
TITLE "Lincoln Center"
PERFORMER "Kenny Garrett"
INDEX 01 00:00:00
FILE "05 - J'ouvert (Homage to Sonny Rollins).wav" WAVE
TRACK 05 AUDIO
TITLE "J'ouvert (Homage to Sonny Rollins)"
PERFORMER "Kenny Garrett"
INDEX 01 00:00:00
FILE "06 - That's It.wav" WAVE
TRACK 06 AUDIO
TITLE "That's It"
PERFORMER "Kenny Garrett"
INDEX 01 00:00:00
FILE "07 - I Say a Little Prayer.wav" WAVE
TRACK 07 AUDIO
TITLE "I Say a Little Prayer"
PERFORMER "Kenny Garrett"
INDEX 01 00:00:00
FILE "08 - Pushing the World Away.wav" WAVE
TRACK 08 AUDIO
TITLE "Pushing the World Away"
PERFORMER "Kenny Garrett"
INDEX 01 00:00:00
FILE "09 - Homma San.wav" WAVE
TRACK 09 AUDIO
TITLE "Homma San"
PERFORMER "Kenny Garrett"
INDEX 01 00:00:00
FILE "10 - Brother Brown.wav" WAVE
TRACK 10 AUDIO
TITLE "Brother Brown"
PERFORMER "Kenny Garrett"
INDEX 01 00:00:00
FILE "11 - Alpha Man.wav" WAVE
TRACK 11 AUDIO
TITLE "Alpha Man"
PERFORMER "Kenny Garrett"
INDEX 01 00:00:00
FILE "12 - Rotation.wav" WAVE
TRACK 12 AUDIO
TITLE "Rotation"
PERFORMER "Kenny Garrett"
INDEX 01 00:00:00
 
Отчет CUETools
[CUETools log; Date: 24.10.2013 14:59:45; Version: 2.1.4]
[CTDB TOCID: w95dgM238FLTjp8Pu9YJeDpprtQ-] found.
Track | CTDB Status
1 | (2/2) Accurately ripped
2 | (2/2) Accurately ripped
3 | (2/2) Accurately ripped
4 | (2/2) Accurately ripped
5 | (2/2) Accurately ripped
6 | (2/2) Accurately ripped
7 | (2/2) Accurately ripped
8 | (2/2) Accurately ripped
9 | (2/2) Accurately ripped
10 | (2/2) Accurately ripped
11 | (2/2) Accurately ripped
12 | (2/2) Accurately ripped
[AccurateRip ID: 001f250b-0125b402-a510ed0c] found.
Track [ CRC | V2 ] Status
01 [e2c80060|78c59baf] (0+1/1) Accurately ripped
02 [b4d3a44f|53340e69] (0+1/1) Accurately ripped
03 [de21d4e9|a84e55a0] (0+1/1) Accurately ripped
04 [2e15deb2|647d8b42] (0+1/1) Accurately ripped
05 [26b77d4e|da64e9a0] (0+1/1) Accurately ripped
06 [8e8164ab|59bb8d8e] (0+1/1) Accurately ripped
07 [7ee849fb|4871cafc] (0+1/1) Accurately ripped
08 [df6d9271|92947caf] (0+1/1) Accurately ripped
09 [d3e7d8be|6e803fe8] (0+1/1) Accurately ripped
10 [8f0f9ab2|f9ff06ab] (0+1/1) Accurately ripped
11 [8bfb44c0|a262d2b2] (0+1/1) Accurately ripped
12 [7f5bfc64|24070027] (0+1/1) Accurately ripped
Track Peak [ CRC32 ] [W/O NULL] [ LOG ]
-- 100,0 [1466FD29] [F745ACC3]
01 100,0 [7013F208] [6839D405] CRC32
02 100,0 [98927DDC] [D52EB460] CRC32
03 100,0 [7A47D203] [A44984D4] CRC32
04 100,0 [5F74D8D5] [99B165C2] CRC32
05 100,0 [4304C624] [6FCFE8BB] CRC32
06 96,6 [BF02242A] [243452E8] CRC32
07 100,0 [97996046] [C6216634] CRC32
08 100,0 [644CB2B1] [DE5962EA] CRC32
09 100,0 [89F4C7D2] [E038E81E] CRC32
10 96,3 [F6611867] [9461DE12] CRC32
11 100,0 [716A805C] [4935A387] CRC32
12 100,0 [20A63467] [E54ACBD4] CRC32
 
Review by Thom Jurek
On Kenny Garret's third album for Mack Avenue Records he explores many terrains. He uses two different pianists in Vernell Brown and Benito Gonzalez, bassist Corcoran Holt, drummers Marcus Baylor, McClenty Hunter, and Mark Whitfield, Jr., as well as a string quartet on "Brother Brown" (on which Garrett appropriately takes over on piano.) All but one of these 12 tunes offer sophisticated evidence of his own journey through the jazz lineage and his pushing at the margins of post-bop. There is a deep reliance on melody and singing through his horns, even when things get musically complex as they do on the title track in which he explores modal and Eastern musical terrains on his soprano. Quotes from Coltrane's "My Favorite Things" are in his solo, but so are moments of Eastern harmony, underscored by Brown's fat chords, wrangling arpeggios, and open-framed statements. There are also a pair of throaty vocal chants by him and the pianist -- his own Christian, the latter Buddhist -- commingling seamlessly to directly point at the spiritual nature inside the tune. Several other numbers offer overt nods to his forebears, collaborators, and influences. "Hey, Chick," with its Moorish-cum-flamenco vibe, evokes themes that Chick Corea explored potently on My Spanish Heart. "Chucho’s Mambo," with its rumbero and son vibe, is a direct nod to pianist Chucho Valdes and also features trumpeter Ravi Best and percussionist Rudy Bird (in one of several appearances). "J’Ouvert" is subtitled "Homage to Sonny Rollins" and takes its cue from the saxophone colossus' use of calypso rhythms, cadences, and lyric themes. "A Side Order of Hijiki" doesn't refer to the Japanese culinary seaweed of its title, but the manner of his own playing as described by the late Mulgrew Miller. It is a driving post-bop jam, with sharp ostinatos by Gonzalez and a thrumming, furious bassline by Holt. A noticeable surprise is the inclusion of Burt Bacharach's and Hal David's "I Say a Little Prayer for You," with a subtle Latin framework that otherwise follows the arrangement written for Dionne Warwick. This is Garrett at his most songlike, and his most direct attempt on the album at communicating melodically; as in the past, it also reveals the deep, early influence of Junior Walker on his playing. Pushing the World Away is a wildly diverse offering for Garrett. What it doesn't reveal in swing it does in intricacies, shadows, impressive arrangements, and striking musicianship.
 
Состав
Kenny Garrett – alto saxophone (#1-7,9,11-12), soprano saxophone (#8), chant (#8), piano (#10)
Benito Gonzalez – piano (#1-3,5-7,9,12)
Corcoran Holt - bass (#1-12)
Marcus Baylor - drums (#1-3,5-6,9,12)
Rudy Bird - percussion (#3,5-7,9), cymbals and gong (#8)
Ravi Best - trumpet (#3)
Vernell Brown - piano (#4,8,11-12), chant (#8)
McClenty Hunter - drums (#4,7,10,12), vocals (#6)
Mark Whitfield, Jr. - drums (#8,11-12)
Jean Baylor - vocals (#9)
Carolin Pook - violin (#10)
Brian Sanders - cello (#10)
Jen Herman - viola (#10)
Приватный:
Нет (DHT включён)
Размер:
468.97 Мб (491,749,168 байт) » файлов: 17
Участники:
0 раздают, 0 качают (0 участников всего)
Внешние участники:
9 раздают, 3 качают (12 участников всего) [ Обновить ]
For power users only: no seeders - write to support@pro-jazz.com. Для power user: нет сидеров - пишите на support@pro-jazz.com.
01:55
108
Нет комментариев. Ваш будет первым!