Поиск

(Post-Bop, Mainstream Jazz, World Fusion, Brazilian Jazz) Hendrik Meurkens - Samba To Go! - 2009, FLAC (tracks+.cue), lossless

Треклист:
•Hendrik Meurkens - Samba To Go!•
Жанр: Post-Bop, Mainstream Jazz, World Fusion, Brazilian Jazz
Год издания: 2009
Издатель (лейбл): ZONO Music
Номер по каталогу: ZM 200901
Аудиокодек: FLAC (*.flac)
Тип рипа: tracks+.cue
Битрейт аудио: lossless
Продолжительность: 00:52:55
Источник (релизер): Рип с диска.
Наличие сканов в содержимом раздачи: да
Треклист:
01. Spaceburger [05:19]
02. Odessa in April [06:35]
03. Samba To Go! [04:30]
04. So Tinha De Ser Com Voce [05:45]
05. Choro No.14 [02:58]
06. Mountain Drive [06:06]
07. Joe's Donut [05:28]
08. Bossa Sketch [05:13]
09. A Choro For You [04:24]
10. My Foolish Heart [06:34]
Personnel:
Hendrik Meurkens - harmonica, vibes
Rodrigo Ursaia - ts, ss, fl, afl
Misha Tsiganov - p, fender rhodes
Gustavo Amarante - b
Adriano Santos - dr, pandeiro, perc.
Luiz Simas - p (9)
Ze Mauricio - congas, pandeiro, perc.
 
Лог создания рипа
Exact Audio Copy V1.0 beta 3 from 29. August 2011
Отчёт EAC об извлечении, выполненном 8. мая 2012, 18:17
Hendrik Meurkens / Samba To Go!
Дисковод: TSSTcorpCDDVDW SH-S223C Adapter: 5 ID: 0
Режим чтения : Достоверность
Использование точного потока : Да
Отключение кэша аудио : Да
Использование указателей C2 : Нет
Коррекция смещения при чтении : 697
Способность читать области Lead-in и Lead-out : Нет
Заполнение пропущенных сэмплов тишиной : Да
Удаление блоков с тишиной в начале и конце : Нет
При вычислениях CRC использовались нулевые сэмплы : Да
Интерфейс : Встроенный Win32-интерфейс для Win NT/2000
Обработка зазоров : Добавлено к предыдущему треку
Выходной формат : Пользовательский кодировщик
Выбранный битрейт : 128 kBit/s
Качество : Высокий
Добавление ID3-тега : Нет
Утилита сжатия : C:\Program Files\Exact Audio Copy\Flac\flac.exe
Дополнительные параметры : -V -8 -T "Genre=%genre%" -T "Artist=%artist%" -T "Title=%title%" -T "Album=%albumtitle%" -T "Date=%year%" -T "Tracknumber=%tracknr%" -T "Comment=%comment%" %source%
TOC извлечённого CD
Трек | Старт | Длительность | Начальный сектор | Конечный сектор
---------------------------------------------------------------------
1 | 0:00.00 | 5:19.01 | 0 | 23925
2 | 5:19.01 | 6:35.71 | 23926 | 53621
3 | 11:54.72 | 4:30.30 | 53622 | 73901
4 | 16:25.27 | 5:45.12 | 73902 | 99788
5 | 22:10.39 | 2:58.73 | 99789 | 113211
6 | 25:09.37 | 6:06.09 | 113212 | 140670
7 | 31:15.46 | 5:28.05 | 140671 | 165275
8 | 36:43.51 | 5:13.02 | 165276 | 188752
9 | 41:56.53 | 4:24.33 | 188753 | 208585
10 | 46:21.11 | 6:34.42 | 208586 | 238177
Трек 1
Имя файла E:\Ozifra\2009.Hendrik Meurkens - Samba To Go!\01. Spaceburger.wav
Длина предзазора 0:00:02.00
Пиковый уровень 98.8 %
Скорость извлечения 2.1 X
Качество трека 100.0 %
CRC теста C8DEBED5
CRC копии C8DEBED5
Трек не обнаружен в базе AccurateRip
Копирование... OK
Трек 2
Имя файла E:\Ozifra\2009.Hendrik Meurkens - Samba To Go!\02. Odessa in April.wav
Пиковый уровень 98.8 %
Скорость извлечения 2.5 X
Качество трека 100.0 %
CRC теста 163BE2D7
CRC копии 163BE2D7
Трек не обнаружен в базе AccurateRip
Копирование... OK
Трек 3
Имя файла E:\Ozifra\2009.Hendrik Meurkens - Samba To Go!\03. Samba To Go!.wav
Пиковый уровень 98.8 %
Скорость извлечения 2.6 X
Качество трека 100.0 %
CRC теста 3D15B90F
CRC копии 3D15B90F
Трек не обнаружен в базе AccurateRip
Копирование... OK
Трек 4
Имя файла E:\Ozifra\2009.Hendrik Meurkens - Samba To Go!\04. So Tinha De Ser Com Voce.wav
Пиковый уровень 98.8 %
Скорость извлечения 2.9 X
Качество трека 100.0 %
CRC теста 25CD88DD
CRC копии 25CD88DD
Трек не обнаружен в базе AccurateRip
Копирование... OK
Трек 5
Имя файла E:\Ozifra\2009.Hendrik Meurkens - Samba To Go!\05. Choro No.14.wav
Пиковый уровень 98.8 %
Скорость извлечения 2.4 X
Качество трека 99.9 %
CRC теста 2E16EC6C
CRC копии 2E16EC6C
Трек не обнаружен в базе AccurateRip
Копирование... OK
Трек 6
Имя файла E:\Ozifra\2009.Hendrik Meurkens - Samba To Go!\06. Mountain Drive.wav
Пиковый уровень 98.8 %
Скорость извлечения 3.3 X
Качество трека 100.0 %
CRC теста AB5400EC
CRC копии AB5400EC
Трек не обнаружен в базе AccurateRip
Копирование... OK
Трек 7
Имя файла E:\Ozifra\2009.Hendrik Meurkens - Samba To Go!\07. Joe's Donut.wav
Пиковый уровень 98.8 %
Скорость извлечения 3.4 X
Качество трека 100.0 %
CRC теста FB7BB068
CRC копии FB7BB068
Трек не обнаружен в базе AccurateRip
Копирование... OK
Трек 8
Имя файла E:\Ozifra\2009.Hendrik Meurkens - Samba To Go!\08. Bossa Sketch.wav
Пиковый уровень 98.8 %
Скорость извлечения 3.2 X
Качество трека 99.9 %
CRC теста 1D03835B
CRC копии 1D03835B
Трек не обнаружен в базе AccurateRip
Копирование... OK
Трек 9
Имя файла E:\Ozifra\2009.Hendrik Meurkens - Samba To Go!\09. A Choro For You.wav
Пиковый уровень 98.8 %
Скорость извлечения 3.7 X
Качество трека 100.0 %
CRC теста 27E50DB5
CRC копии 27E50DB5
Трек не обнаружен в базе AccurateRip
Копирование... OK
Трек 10
Имя файла E:\Ozifra\2009.Hendrik Meurkens - Samba To Go!\10. My Foolish Heart.wav
Пиковый уровень 98.8 %
Скорость извлечения 4.0 X
Качество трека 100.0 %
CRC теста 78E3F1B4
CRC копии 78E3F1B4
Трек не обнаружен в базе AccurateRip
Копирование... OK
Ни одного трека нет в базе AccurateRip
Ошибок не произошло
Конец отчёта
==== Контрольная сумма отчёта 88281214014F7CEDAC12116814F830E90C7E35FC8B6A5CE4C529AD01706C8A9E ====
 
Содержание индексной карты (.CUE)
REM GENRE Jazz
REM DATE 2009
REM DISCID 830C670A
REM COMMENT "ExactAudioCopy v1.0b3"
PERFORMER "Hendrik Meurkens"
TITLE "Samba To Go!"
FILE "01. Spaceburger.wav" WAVE
TRACK 01 AUDIO
TITLE "Spaceburger"
PERFORMER "Hendrik Meurkens"
ISRC USQ6L0800001
FLAGS DCP
INDEX 01 00:00:00
FILE "02. Odessa in April.wav" WAVE
TRACK 02 AUDIO
TITLE "Odessa in April"
PERFORMER "Hendrik Meurkens"
ISRC USQ6L0800001
FLAGS DCP
INDEX 01 00:00:00
FILE "03. Samba To Go!.wav" WAVE
TRACK 03 AUDIO
TITLE "Samba To Go!"
PERFORMER "Hendrik Meurkens"
ISRC USQ6L0800002
FLAGS DCP
INDEX 01 00:00:00
FILE "04. So Tinha De Ser Com Voce.wav" WAVE
TRACK 04 AUDIO
TITLE "So Tinha De Ser Com Voce"
PERFORMER "Hendrik Meurkens"
ISRC USQ6L0800004
FLAGS DCP
INDEX 01 00:00:00
FILE "05. Choro No.14.wav" WAVE
TRACK 05 AUDIO
TITLE "Choro No.14"
PERFORMER "Hendrik Meurkens"
ISRC USQ6L0800005
FLAGS DCP
INDEX 01 00:00:00
FILE "06. Mountain Drive.wav" WAVE
TRACK 06 AUDIO
TITLE "Mountain Drive"
PERFORMER "Hendrik Meurkens"
ISRC USQ6L0800006
FLAGS DCP
INDEX 01 00:00:00
FILE "07. Joe's Donut.wav" WAVE
TRACK 07 AUDIO
TITLE "Joe's Donut"
PERFORMER "Hendrik Meurkens"
ISRC USQ6L0800007
FLAGS DCP
INDEX 01 00:00:00
FILE "08. Bossa Sketch.wav" WAVE
TRACK 08 AUDIO
TITLE "Bossa Sketch"
PERFORMER "Hendrik Meurkens"
ISRC USQ6L0800008
FLAGS DCP
INDEX 01 00:00:00
FILE "09. A Choro For You.wav" WAVE
TRACK 09 AUDIO
TITLE "A Choro For You"
PERFORMER "Hendrik Meurkens"
ISRC USQ6L0800009
FLAGS DCP
INDEX 01 00:00:00
FILE "10. My Foolish Heart.wav" WAVE
TRACK 10 AUDIO
TITLE "My Foolish Heart"
PERFORMER "Hendrik Meurkens"
ISRC USQ6L0800010
FLAGS DCP
INDEX 01 00:00:00
02:45
262
Нет комментариев. Ваш будет первым!