Поиск

(Post-Bop, Mainstream Jazz) [CD] Milt Jackson - Sunflower - 1972 (2006 Japan Edition), FLAC (tracks+.cue), lossless

(Post-Bop, Mainstream Jazz) [CD] Milt Jackson - Sunflower - 1972 (2006 Japan Edition), FLAC (tracks+.cue), lossless
Треклист:
Milt Jackson - Sunflower
Жанр: Post-Bop, Mainstream Jazz
Носитель: CD
Страна-производитель диска: Япония
Год издания: 2006
Издатель (лейбл): CTI/King Records
Номер по каталогу: KICJ 2179
Страна: США
Аудиокодек: FLAC (*.flac)
Тип рипа: tracks+.cue
Битрейт аудио: lossless
Продолжительность: 34:29
Источник (релизер): magritte66 (what)
Наличие сканов в содержимом раздачи: нет
Треклист:
01. For Someone I Love (Jackson) - 10:11
02. What Are You Doing the Rest of Your Life? (Bergman-Bergman-Legrand) - 7:01
03. People Make the World Go Round (Bell-Creed) - 8:24
04. Sunflower (Hubbard) - 8:53
Состав:
Milt Jackson - vibes
Freddie Hubbard - trumpet, flugelhorn
Herbie Hancock - piano
Jay Berliner - guitar
Ron Carter - bass
Billy Cobham - drums
Ralph MacDonald - percussion
Romeo Penque - alto flute, English horn, oboe
Phil Bodner - flute, alto flute, piccolo, English horn
George Marge - clarinet, bass clarinet, alto flute, English horn
Max Ellen, Paul Gershman, Emanuel Green, Charles Libove, Joe Malin, David Nadien, Gene Orloff, Elliot Rosoff, Irving Spice - violin
Charles McCraken, George Ricci, Alan Shulman - cello
Margaret Ross - harp
Don Sebesky - arranger, conductor
Recorded at Rudy Van Gelder Studio in Englewood Cliffs, NJ on December 12-13, 1972.
 
Лог создания рипа
X Lossless Decoder version 20140504 (147.0)
XLD extraction logfile from 2014-08-04 18:58:38 -0400
Milt Jackson / Sunflower
Used drive : HL-DT-ST DVDRW GS23N (revision SB03)
Media type : Pressed CD
Ripper mode : XLD Secure Ripper
Disable audio cache : OK for the drive with a cache less than 1375KiB
Make use of C2 pointers : NO
Read offset correction : 667
Max retry count : 100
Gap status : Analyzed, Appended
TOC of the extracted CD
Track | Start | Length | Start sector | End sector
---------------------------------------------------------
1 | 00:00:00 | 10:10:55 | 0 | 45804
2 | 10:10:55 | 07:00:70 | 45805 | 77374
3 | 17:11:50 | 08:24:00 | 77375 | 115174
4 | 25:35:50 | 08:53:20 | 115175 | 155169
AccurateRip Summary
Disc not found in AccurateRip DB.
All Tracks
Album gain : -4.96 dB
Peak : 0.979797
Statistics
Read error : 0
Jitter error (maybe fixed) : 0
Retry sector count : 0
Damaged sector count : 0
Track 01
Filename : /whatcd/Milt Jackson-Sunflower (1972) (FLAC)/01 For Someone I Love.flac
Pre-gap length : 00:02:00
Track gain : -5.00 dB
Peak : 0.979797
CRC32 hash (test run) : 1AC5C39C
CRC32 hash : 1AC5C39C
CRC32 hash (skip zero) : 20C7C84E
AccurateRip v1 signature : E3036212
AccurateRip v2 signature : 1A4A4985
->Track not present in AccurateRip database.
Statistics
Read error : 0
Jitter error (maybe fixed) : 0
Retry sector count : 0
Damaged sector count : 0
Track 02
Filename : /whatcd/Milt Jackson-Sunflower (1972) (FLAC)/02 What Are You Doing The Rest Of Your Life?.flac
Pre-gap length : 00:03:20
Track gain : -5.02 dB
Peak : 0.944122
CRC32 hash (test run) : 23C91EA7
CRC32 hash : 23C91EA7
CRC32 hash (skip zero) : C4661541
AccurateRip v1 signature : CAD3A6D8
AccurateRip v2 signature : 3AB72E21
->Track not present in AccurateRip database.
Statistics
Read error : 0
Jitter error (maybe fixed) : 0
Retry sector count : 0
Damaged sector count : 0
Track 03
Filename : /whatcd/Milt Jackson-Sunflower (1972) (FLAC)/03 People Make The World Go Round.flac
Pre-gap length : 00:03:00
Track gain : -4.89 dB
Peak : 0.979645
CRC32 hash (test run) : B3D2B0F5
CRC32 hash : B3D2B0F5
CRC32 hash (skip zero) : 6483876B
AccurateRip v1 signature : 251C56E8
AccurateRip v2 signature : 31EDDE66
->Track not present in AccurateRip database.
Statistics
Read error : 0
Jitter error (maybe fixed) : 0
Retry sector count : 0
Damaged sector count : 0
Track 04
Filename : /whatcd/Milt Jackson-Sunflower (1972) (FLAC)/04 Sunflower.flac
Pre-gap length : 00:01:00
Track gain : -4.95 dB
Peak : 0.979767
CRC32 hash (test run) : C3EA6D93
CRC32 hash : C3EA6D93
CRC32 hash (skip zero) : 98660CFF
AccurateRip v1 signature : 10E7676B
AccurateRip v2 signature : E07D4DC2
->Track not present in AccurateRip database.
Statistics
Read error : 0
Jitter error (maybe fixed) : 0
Retry sector count : 0
Damaged sector count : 0
No errors occurred
End of status report
 
Содержание индексной карты (.CUE)
TITLE "Sunflower"
PERFORMER "Milt Jackson"
REM GENRE "Jazz"
REM DATE "1972"
REM DISCID 22081404
REM REPLAYGAIN_ALBUM_GAIN -4.96 dB
REM REPLAYGAIN_ALBUM_PEAK 0.979797
FILE "01 - For Someone I Love.flac" WAVE
TRACK 01 AUDIO
TITLE "For Someone I Love"
REM REPLAYGAIN_TRACK_GAIN -5.00 dB
REM REPLAYGAIN_TRACK_PEAK 0.979797
INDEX 01 00:00:00
TRACK 02 AUDIO
TITLE "What Are You Doing the Rest of Your Life?"
REM REPLAYGAIN_TRACK_GAIN -5.02 dB
REM REPLAYGAIN_TRACK_PEAK 0.944122
INDEX 00 10:07:35
FILE "02 - What Are You Doing the Rest of Your Life.flac" WAVE
INDEX 01 00:00:00
TRACK 03 AUDIO
TITLE "People Make the World Go Round"
REM REPLAYGAIN_TRACK_GAIN -4.89 dB
REM REPLAYGAIN_TRACK_PEAK 0.979645
INDEX 00 06:57:70
FILE "03 - People Make the World Go Round.flac" WAVE
INDEX 01 00:00:00
TRACK 04 AUDIO
TITLE "Sunflower"
REM REPLAYGAIN_TRACK_GAIN -4.95 dB
REM REPLAYGAIN_TRACK_PEAK 0.979767
INDEX 00 08:23:00
FILE "04 - Sunflower.flac" WAVE
INDEX 01 00:00:00
 
Лог проверки качества
-----------------------
DON'T MODIFY THIS FILE
-----------------------
PERFORMER: auCDtect Task Manager, ver. 1.6.0 RC1 build 1.6.0.1
Copyright (c) 2008-2010 y-soft. All rights reserved
http://y-soft.org
ANALYZER: auCDtect: CD records authenticity detector, version 0.8.2
Copyright (c) 2004 Oleg Berngardt. All rights reserved.
Copyright (c) 2004 Alexander Djourik. All rights reserved.
FILE: 04 - Sunflower.flac
Size: 51170436 Hash: 93A68398FB34F752B075A31C8E0C1AB0 Accuracy: -m0
Conclusion: CDDA 100%
Signature: 098087B6E307D8ACAAC587A37F89A9E0C99F0656
FILE: 03 - People Make the World Go Round.flac
Size: 44908702 Hash: 1F43F1376129C8DB6307C1937E74EDA3 Accuracy: -m0
Conclusion: CDDA 100%
Signature: D5C67D8091455162F0782E738F7735BF74EB3D28
FILE: 02 - What Are You Doing the Rest of Your Life.flac
Size: 37909490 Hash: 619897B3B0591CDE9012694AB0934A49 Accuracy: -m0
Conclusion: CDDA 100%
Signature: 163A79E740E5B22170E630B64002D0CF7F00C698
FILE: 01 - For Someone I Love.flac
Size: 55466996 Hash: 17E7330A65DFEF9FD987CBFBD7050CDC Accuracy: -m0
Conclusion: CDDA 100%
Signature: AD44009977607092B5C778A47D88E1E11E9484AD
 
Review by Thom Jurek
Recorded over two days in December of 1972 at Rudy Van Gelder's Englewood, New Jersey home studio, vibraphonist Milt Jackson's Sunflower is the first -- and best -- of his three albums for Creed Taylor's CTI imprint. (And one of the finest offerings on the label.) With a core band consisting of Herbie Hancock (playing electric and acoustic piano), bassist Ron Carter, drummer Billy Cobham, trumpeter Freddie Hubbard, drummer/percussionist Ralph McDonald, and guitarist Jay Berliner. A chamber orchestra exquisitely arranged and conducted by Don Sebesky adorns the session as well. Jackson's "For Someone I Love," opens the five-tune set, with Berliner playing solo flamenco guitar before the vibes, trumpet, and elements from the chamber orchestra delicately, impressionistically color the background. It gradually moves into a languid, bluesy ballad that slowly gains in both texture and dynamic until the strings trill tensely. Hubbard and Hancock engage them in solos that gently swing out the tune. The reading of Michel Legrand's "What Are You Doing for the Rest of Your Life" is a gorgeous showcase for Jackson; his solo dominates the arrangement. Carter gets downright funky on his upright to introduce Thom Bell's "People Make the World Go Round," and Hancock follows him on Rhodes. Jackson takes the melody, striking a layered contrast as Hubbard slips around all three playing an extension of the melody with requisite taste, fluidity, and taut phrasing. Hancock gets funky to the bone in his brief solo, as the vibes soar around and through his phrases. The title track is a Hubbard composition that floats and hovers with a Latin backbeat before shifting tempos as the solos begin. The expanded harmonic palette of trumpet with the reeds, woodwinds, and strings on the melody add an exotic textural palette for his solo. Jackson's "SKJ" closes the set with an old-school, swinging hard bop blues with barely detectable embellishments by Sebesky. While Sunflower sometimes feels more like a group session rather than a Jackson-led one, that's part of its exquisite beauty. [In 2011, Sunflower saw reissue as part of Sony's 40th Anniversary series celebrating CTI. It was remastered from the original two-track analog tapes in order to best capture the sound of the LP.]
Приватный:
Нет (DHT включён)
Размер:
181.67 Мб (190,496,746 байт) » файлов: 13
Участники:
0 раздают, 0 качают (0 участников всего)
Внешние участники:
5 раздают, 1 качают (6 участников всего) [ Обновить ]
For power users only: no seeders - write to support@pro-jazz.com. Для power user: нет сидеров - пишите на support@pro-jazz.com.
11:59
126
Нет комментариев. Ваш будет первым!