Вы используете незарегистрированную версию компонента "Вкладки"!

Поиск

(Post-Bop) Leo Wright - Blues Shout - 1960 (2012 Japan Edition), FLAC (image+.cue), lossless

(Post-Bop) Leo Wright - Blues Shout - 1960 (2012 Japan Edition), FLAC (image+.cue), lossless
Треклист:
Leo Wright - Blues Shout
Жанр: Post-Bop
Страна-производитель диска: Япония
Год издания: 2012
Издатель (лейбл): Atlantic/WEA/Warner
Номер по каталогу: WPCR-27134
Страна: США
Аудиокодек: FLAC (*.flac)
Тип рипа: image+.cue
Битрейт аудио: lossless
Продолжительность: 40:35
Источник (релизер): диск из моей коллекции
Наличие сканов в содержимом раздачи: да
Треклист:
01. Sigi (Wright) - 3:27
02. Angel Eyes (Dennis-Brent) - 5:13
03. Autumn Leaves (Kosma-Prevert-Mercer) - 3:49
04. Indian Summer (Herbert-Dubin) - 7:05
05. Blues Shout (Gryce) - 5:02
06. Night in Tunisia (Gillespie-Paparelli) - 5:26
07. The Wind (Freeman-Gladstone) - 4:43
08. Two Moods (Wright) - 5:49
Состав:
Leo Wright - flute (#1-4), alto saxophone (#5-8)
Richard Williams - trumpet (#5-8)
Harry Lookofsky - violin (#1,2,4)
Junior Mance - piano
Art Davis - bass
Charlie Persip - drums
Recorded in New York on May 25 (#5-8) and August 29 (#1-4), 1960.
 
Лог создания рипа
Exact Audio Copy V1.0 beta 3 from 29. August 2011
EAC extraction logfile from 17. May 2013, 22:33
Leo Wright / Blues Shout
Used drive : ASUS DRW-24B1LT Adapter: 5 ID: 1
Read mode : Secure
Utilize accurate stream : Yes
Defeat audio cache : Yes
Make use of C2 pointers : No
Read offset correction : 6
Overread into Lead-In and Lead-Out : No
Fill up missing offset samples with silence : Yes
Delete leading and trailing silent blocks : No
Null samples used in CRC calculations : Yes
Used interface : Native Win32 interface for Win NT & 2000
Used output format : User Defined Encoder
Selected bitrate : 768 kBit/s
Quality : High
Add ID3 tag : No
Command line compressor : C:\Program Files\Exact Audio Copy\Flac\flac.exe
Additional command line options : -8 -V -T "ARTIST=%artist%" -T "TITLE=%title%" -T "ALBUM=%albumtitle%" -T "DATE=%year%" -T "TRACKNUMBER=%tracknr%" -T "TOTALTRACKS=%numtracks%" -T "GENRE=%genre%" -T "ALBUMARTIST=%albumartist%" -T "ALBUM ARTIST=%albumartist%" -T "COMMENT=EAC Secure Mode, Test & Copy, AccurateRip, FLAC -8" %source%
TOC of the extracted CD
Track | Start | Length | Start sector | End sector
---------------------------------------------------------
1 | 0:00.00 | 3:27.18 | 0 | 15542
2 | 3:27.18 | 5:13.33 | 15543 | 39050
3 | 8:40.51 | 3:49.36 | 39051 | 56261
4 | 12:30.12 | 7:05.24 | 56262 | 88160
5 | 19:35.36 | 5:02.32 | 88161 | 110842
6 | 24:37.68 | 5:25.43 | 110843 | 135260
7 | 30:03.36 | 4:42.47 | 135261 | 156457
8 | 34:46.08 | 5:49.25 | 156458 | 182657
Range status and errors
Selected range
Filename F:\audio\Leo Wright - Blues Shout.wav
Peak level 99.9 %
Extraction speed 5.3 X
Range quality 100.0 %
Test CRC 9F06D40D
Copy CRC 9F06D40D
Copy OK
No errors occurred
AccurateRip summary
Track 1 not present in database
Track 2 not present in database
Track 3 not present in database
Track 4 not present in database
Track 5 not present in database
Track 6 not present in database
Track 7 not present in database
Track 8 not present in database
None of the tracks are present in the AccurateRip database
End of status report
---- CUETools DB Plugin V2.1.3
[CTDB TOCID: ZctgQgbHUKY1hPPGQ2_ueabz79Q-] disk not present in database, Submit result: ZctgQgbHUKY1hPPGQ2_ueabz79Q- has been uploaded
==== Log checksum 1792BC8CBD17BFDEA1034B3AAE52A90FF9F493D06EB44EF497D6DA386DB2AEC2 ====
 
Содержание индексной карты (.CUE)
REM GENRE Jazz
REM DATE 1960
REM DISCID 69098308
REM COMMENT "ExactAudioCopy v1.0b3"
PERFORMER "Leo Wright"
TITLE "Blues Shout"
FILE "Leo Wright - Blues Shout.wav" WAVE
TRACK 01 AUDIO
TITLE "Sigi"
PERFORMER "Leo Wright"
INDEX 01 00:00:00
TRACK 02 AUDIO
TITLE "Angel Eyes"
PERFORMER "Leo Wright"
INDEX 00 03:24:07
INDEX 01 03:27:18
TRACK 03 AUDIO
TITLE "Autumn Leaves"
PERFORMER "Leo Wright"
INDEX 00 08:37:34
INDEX 01 08:40:51
TRACK 04 AUDIO
TITLE "Indian Summer"
PERFORMER "Leo Wright"
INDEX 00 12:26:47
INDEX 01 12:30:12
TRACK 05 AUDIO
TITLE "Blues Shout"
PERFORMER "Leo Wright"
INDEX 00 19:32:62
INDEX 01 19:35:36
TRACK 06 AUDIO
TITLE "Night in Tunisia"
PERFORMER "Leo Wright"
INDEX 00 24:34:37
INDEX 01 24:37:68
TRACK 07 AUDIO
TITLE "The Wind"
PERFORMER "Leo Wright"
INDEX 00 30:00:11
INDEX 01 30:03:36
TRACK 08 AUDIO
TITLE "Two Moods"
PERFORMER "Leo Wright"
INDEX 00 34:42:61
INDEX 01 34:46:08
 
Review by Jason Ankeny
Leo Wright's Atlantic debut, Blues Shout, effectively summarizes his career as a sideman, embracing the expressionist sensibilities of longtime boss Dizzy Gillespie as well as the Latin inspirations of longtime bandmate Lalo Schifrin to create a fiercely modern and uncommonly impassioned sound all its own. Joined by pianist Junior Mance, trumpeter Richard Williams, bassist Art Davis, and drummer Charlie Persip, Wright divides his attention between his signature alto sax and flute, delivering a series of thoughtful and lyrical solos that positively radiate energy. The blues referenced in the title are more a feeling than a sound, underscoring the emotional intensity that bristles below the surface of every note.
Any questions - support@pro-jazz.com. Есть вопросы - support@pro-jazz.com
20:40
208
Нет комментариев. Ваш будет первым!