Поиск

(Post-Bop, Latin-Jazz, World Fusion) Charlie Mariano Quique Sinesi - Tango para Charlie (2000) - 2005, APE (image+.cue), lossless

Треклист:
Charlie Mariano Quique Sinesi - Tango para Charlie (2000)
Жанр: Post-Bop, Latin-Jazz, World Fusion
Год выпуска диска: 2005
Производитель диска: Russia - Par Media Music
Аудио кодек: APE
Тип рипа: image+.cue
Битрейт аудио: lossless
Продолжительность: 58:20
Треклист:
1 Berliner Tanguismos Part I (by Quique Sinesi) 5:18
2 Berliner Tanguismos Part II (by Quique Sinesi) 2:48
3 Berliner Tanguismos Part III (by Quique Sinesi) 5:37
4 Berliner Tanguismos Part IV (by Quique Sinesi) 4:32
5 The Lady (by Charlie Mariano) 7:17
6 Faluseando (by Quique Sinesi) 2:24
7 Zephyr (by Charlie Mariano) 7:19
8 Tarde De Lluvia En Köln (by Quique Sinesi) 5:42
9 Alta Paz (by Quique Sinesi) 4:32
10 If Only (by Charlie Mariano) 4:11
11 Tango Para Charlie (by Quique Sinesi) 6:53
12 Gone (by Charlie Mariano) 2:00
Quique Sinesi plays Oscar Trezzini guitars (Argentinia)
Charlie Mariano - alto sax, flute
Quique Sinesi - 7 string spanish guitar, charango, piccolo guitar
Recorded: October 29 & 30, 2000 at Hansa Studio, Bonn
Рип мой
 
Доп. информация
More than one is (obviously) two. Might be Four in One, as it so often is in jazz (Think Coltrane Think Rollins). Might take five. (Think Armstrong Think Miles). Might even be eighteen (Think if you still can Ellington). But two is the closest we can get. The closest by far. Two can feel what the other wants. Two is the abstraction of more than one. Two is the most open more than one.
Jazz being the art of communication, two might be the closest we can get to a definition of its essence. In the proliferation of duo recordings that filled the seventies and trickled on into the present, there have been few incorporating the guitar, and often these were guitar duets. Right now, only Joe Pass comes to my mind as a guitarist working with other instruments in a duo setting (J. J. Johnson's trombone, Ella Fitzgerald's voice, Jimmy Rowles' piano). But Pass is a good case in point: a strong solo guitarist who is able to provide both a cushiony accompaniment and a free solo commentary even to a partner whose instrument limits his ability to accompany.
Which brings us (at last!) to this recording. Enrique "Quique" Sinesi, who joins alto saxophonist Charlie Mariano on these recordings, is a strong solo guitarist with a very distinctive musicality. His professional life was determined by the music of his Argentine homeland, he began in Tango Nuevo groups with bandoneonist Dino Saluzzi and Pablo Ziegler, the former pianist in Astor Piazzola's bands. His playing stays deeply influenced by this music, but he has always remained open toward jazz. In 1998 he performed before Jim Hall, who since then considers Sinesi one of his favorite guitarists.
On "Tango para Charlie" this solo wizard encounters the sublime melodic magic of one of the great saxophonists in jazz. The wonder of Mariano has always been his stylistic openness, his ability to go from Kenton to Karnataka, from Pierce to Pork Pie without compromising his personal voice, his "jazz" style. So when Sinesi boards his 7-string Spanish guitar and sets up a tango groove employing the meanest bass string on any side of the ocean, Mariano counters with cool and jazzy melodic lines that abstract the groove toward that openness of the "two". With his supple scarcity Mariano opens up the closure that is inherent in the solo/accompaniment that a guitar can provide. There is no closure here. With every sound these two musicians make here, with every beat they share, they come closer together, moving like one and yet keeping the openness of the two. An abstraction of more than one.
There is no closure in these two. They provide a dialogue that is more. Than one. The more than two. Of music.
18 February 2001 Stephan Richter / writer, clarinetist Источник
quiquesinesi.com
 
EAC extraction logfile
Exact Audio Copy V0.99 prebeta 5 from 4. May 2009
EAC extraction logfile from 10. August 2010, 7:33
Charlie Mariano, Quique Sinesi / Tango para Charlie
Used drive : Optiarc DVD RW AD-7200S Adapter: 3 ID: 0
Read mode : Secure
Utilize accurate stream : Yes
Defeat audio cache : Yes
Make use of C2 pointers : No
Read offset correction : 48
Overread into Lead-In and Lead-Out : No
Fill up missing offset samples with silence : Yes
Delete leading and trailing silent blocks : No
Null samples used in CRC calculations : Yes
Used interface : Installed external ASPI interface
Used output format : Internal WAV Routines
Sample format : 44.100 Hz; 16 Bit; Stereo
TOC of the extracted CD
Track | Start | Length | Start sector | End sector
---------------------------------------------------------
1 | 0:00.00 | 5:15.67 | 0 | 23691
2 | 5:15.67 | 2:46.45 | 23692 | 36186
3 | 8:02.37 | 5:34.38 | 36187 | 61274
4 | 13:37.00 | 4:25.67 | 61275 | 81216
5 | 18:02.67 | 7:15.58 | 81217 | 113899
6 | 25:18.50 | 2:23.67 | 113900 | 124691
7 | 27:42.42 | 7:20.60 | 124692 | 157751
8 | 35:03.27 | 5:41.55 | 157752 | 183381
9 | 40:45.07 | 4:31.55 | 183382 | 203761
10 | 45:16.62 | 4:11.08 | 203762 | 222594
11 | 49:27.70 | 6:54.32 | 222595 | 253676
12 | 56:22.27 | 1:58.43 | 253677 | 262569
Range status and errors
Selected range
Filename C:\Documents and Settings\1\Мои документы\EAC\Charlie Mariano Quique Sinesi - Tango para Charlie (2000)\Charlie Mariano, Quique Sinesi - Tango para Charlie.wav
Peak level 99.9 %
Range quality 99.9 %
Copy CRC 739B3D4A
Copy OK
No errors occurred
AccurateRip summary
Track 1 not present in database
Track 2 not present in database
Track 3 not present in database
Track 4 not present in database
Track 5 not present in database
Track 6 not present in database
Track 7 not present in database
Track 8 not present in database
Track 9 not present in database
Track 10 not present in database
Track 11 not present in database
Track 12 not present in database
None of the tracks are present in the AccurateRip database
End of status report
16:16
326
Нет комментариев. Ваш будет первым!