Поиск

(Post-Bop, Latin Jazz) Roberto Fonseca - Zamazu - 2006, FLAC (tracks+.cue), lossless

(Post-Bop, Latin Jazz) Roberto Fonseca - Zamazu - 2006, FLAC (tracks+.cue), lossless
Треклист:
Roberto Fonseca - Zamazu
Жанр: Post-Bop, Latin Jazz
Год выпуска диска: 2006
Производитель диска: видимо, копия диска лэйбла Enja/Justin Time
Аудио кодек: FLAC
Тип рипа: tracks+.cue
Битрейт аудио: lossless
Продолжительность: 1:03:56
Трэклист:
1. Misa Popular (0:32)
2. Tierra en mano (5:21)
3. Clandestino (4:45)
4. Llego cachaito (3:47)
5. Asi Baila mi Madre (0:56)
6. Congo Arabe (5:53)
7. Zamazu (4:39)
8. Suspiro (7:12)
9. Ishmael (5:55)
10. El Niejo (6:51)
11. Mil congojas (3:19)
12. Triste alegria (6:32)
13. Amazamazu (5:01)
14. Dime que no (3:13)
 
Отчет ЕАС
Exact Audio Copy V0.99 prebeta 4 from 23. January 2008
EAC extraction logfile from 12. November 2008, 21:51
Roberto Fonseca / Zamazu
Used drive : _NEC DVD_RW ND-4570A Adapter: 1 ID: 0
Read mode : Secure
Utilize accurate stream : Yes
Defeat audio cache : Yes
Make use of C2 pointers : No
Read offset correction : 48
Overread into Lead-In and Lead-Out : No
Fill up missing offset samples with silence : Yes
Delete leading and trailing silent blocks : No
Null samples used in CRC calculations : Yes
Used interface : Installed external ASPI interface
Gap handling : Appended to previous track
Used output format : Internal WAV Routines
Sample format : 44.100 Hz; 16 Bit; Stereo
TOC of the extracted CD
Track | Start | Length | Start sector | End sector
---------------------------------------------------------
1 | 0:00.00 | 0:32.50 | 0 | 2449
2 | 0:32.50 | 5:21.63 | 2450 | 26587
3 | 5:54.38 | 4:45.25 | 26588 | 47987
4 | 10:39.63 | 3:47.52 | 47988 | 65064
5 | 14:27.40 | 0:56.26 | 65065 | 69290
6 | 15:23.66 | 5:53.53 | 69291 | 95818
7 | 21:17.44 | 4:39.15 | 95819 | 116758
8 | 25:56.59 | 7:12.40 | 116759 | 149198
9 | 33:09.24 | 5:55.05 | 149199 | 175828
10 | 39:04.29 | 6:51.71 | 175829 | 206724
11 | 45:56.25 | 3:19.35 | 206725 | 221684
12 | 49:15.60 | 6:32.37 | 221685 | 251121
13 | 55:48.22 | 5:01.40 | 251122 | 273736
14 | 60:49.62 | 3:13.46 | 273737 | 288257
Track 1
Filename O:\0 Torrents\Roberto Fonseca\Roberto Fonseca - 2006 Zamazu\01 - Misa Popular.wav
Pre-gap length 0:00:02.00
Peak level 85.5 %
Track quality 100.0 %
Test CRC CD20A497
Copy CRC CD20A497
Cannot be verified as accurate (confidence 5) [335EB5BA], AccurateRip returned [BB178C9C]
Copy OK
Track 2
Filename O:\0 Torrents\Roberto Fonseca\Roberto Fonseca - 2006 Zamazu\02 - Tierra en mano.wav
Pre-gap length 0:00:01.46
Peak level 97.2 %
Track quality 100.0 %
Test CRC B141AF35
Copy CRC B141AF35
Cannot be verified as accurate (confidence 5) [47BAC1EF], AccurateRip returned [12AEC16F]
Copy OK
Track 3
Filename O:\0 Torrents\Roberto Fonseca\Roberto Fonseca - 2006 Zamazu\03 - Clandestino.wav
Pre-gap length 0:00:02.33
Peak level 97.2 %
Track quality 100.0 %
Test CRC 79A15E47
Copy CRC 79A15E47
Cannot be verified as accurate (confidence 4) [AE5E78CB], AccurateRip returned [6354A9B3]
Copy OK
Track 4
Filename O:\0 Torrents\Roberto Fonseca\Roberto Fonseca - 2006 Zamazu\04 - Llego cachaito.wav
Pre-gap length 0:00:02.66
Peak level 98.5 %
Track quality 100.0 %
Test CRC 445DEE33
Copy CRC 445DEE33
Cannot be verified as accurate (confidence 4) [6A781307], AccurateRip returned [EF19439D]
Copy OK
Track 5
Filename O:\0 Torrents\Roberto Fonseca\Roberto Fonseca - 2006 Zamazu\05 - Asi Baila mi Madre.wav
Pre-gap length 0:00:02.33
Peak level 97.2 %
Track quality 100.0 %
Test CRC 8F56559C
Copy CRC 8F56559C
Cannot be verified as accurate (confidence 4) [C2CD1861], AccurateRip returned [EC592633]
Copy OK
Track 6
Filename O:\0 Torrents\Roberto Fonseca\Roberto Fonseca - 2006 Zamazu\06 - Congo Arabe.wav
Pre-gap length 0:00:01.32
Peak level 98.3 %
Track quality 100.0 %
Test CRC FD3C70A0
Copy CRC FD3C70A0
Cannot be verified as accurate (confidence 3) [B8D63AFA], AccurateRip returned [D26E0C46]
Copy OK
Track 7
Filename O:\0 Torrents\Roberto Fonseca\Roberto Fonseca - 2006 Zamazu\07 - Zamazu.wav
Pre-gap length 0:00:01.86
Peak level 98.5 %
Track quality 100.0 %
Test CRC C1267369
Copy CRC C1267369
Cannot be verified as accurate (confidence 4) [1DABC3A1], AccurateRip returned [6435B08F]
Copy OK
Track 8
Filename O:\0 Torrents\Roberto Fonseca\Roberto Fonseca - 2006 Zamazu\08 - Suspiro.wav
Pre-gap length 0:00:01.68
Peak level 97.2 %
Track quality 100.0 %
Test CRC 242622FD
Copy CRC 242622FD
Cannot be verified as accurate (confidence 4) [58A3954E], AccurateRip returned [5E0C0C8A]
Copy OK
Track 9
Filename O:\0 Torrents\Roberto Fonseca\Roberto Fonseca - 2006 Zamazu\09 - Ishmael.wav
Pre-gap length 0:00:02.48
Peak level 97.4 %
Track quality 100.0 %
Test CRC C76F88F6
Copy CRC C76F88F6
Cannot be verified as accurate (confidence 4) [7E1B7D80], AccurateRip returned [80AA69EE]
Copy OK
Track 10
Filename O:\0 Torrents\Roberto Fonseca\Roberto Fonseca - 2006 Zamazu\10 - El Niejo.wav
Pre-gap length 0:00:01.21
Peak level 96.4 %
Track quality 100.0 %
Test CRC 2678ADF5
Copy CRC 2678ADF5
Cannot be verified as accurate (confidence 4) [E2FEAE5F], AccurateRip returned [3920BD43]
Copy OK
Track 11
Filename O:\0 Torrents\Roberto Fonseca\Roberto Fonseca - 2006 Zamazu\11 - Mil congojas.wav
Pre-gap length 0:00:01.96
Peak level 97.2 %
Track quality 100.0 %
Test CRC 627BA563
Copy CRC 627BA563
Cannot be verified as accurate (confidence 4) [CF212C85], AccurateRip returned [A8DCD877]
Copy OK
Track 12
Filename O:\0 Torrents\Roberto Fonseca\Roberto Fonseca - 2006 Zamazu\12 - Triste alegria.wav
Pre-gap length 0:00:02.41
Peak level 97.4 %
Track quality 99.9 %
Test CRC F83228B0
Copy CRC F83228B0
Cannot be verified as accurate (confidence 4) [C7F54783], AccurateRip returned [0367F1C5]
Copy OK
Track 13
Filename O:\0 Torrents\Roberto Fonseca\Roberto Fonseca - 2006 Zamazu\13 - Amazamazu.wav
Pre-gap length 0:00:01.86
Peak level 97.2 %
Track quality 100.0 %
Test CRC A6B357CF
Copy CRC A6B357CF
Cannot be verified as accurate (confidence 4) [96B63C92], AccurateRip returned [B581E89A]
Copy OK
Track 14
Filename O:\0 Torrents\Roberto Fonseca\Roberto Fonseca - 2006 Zamazu\14 - Dime que no.wav
Pre-gap length 0:00:00.70
Peak level 97.2 %
Track quality 99.9 %
Test CRC D4D52DB7
Copy CRC D4D52DB7
Cannot be verified as accurate (confidence 4) [AF797956], AccurateRip returned [E45D1BF0]
Copy OK
No tracks could be verified as accurate
You may have a different pressing from the one(s) in the database
No errors occurred
End of status report
 
audiochecker log
AUDIOCHECKER v2.0 beta (build 457) - by Dester - opdester@freemail.hu
~~~~~~~~~~~~~~~~~~~~~~~~~~~~~~~~~~
-=== DO NOT EDIT THIS FILE! ===-
Path: ...\Roberto Fonseca - 2006 Zamazu
01 -=- 01 - Misa Popular.wav -=- CDDA (100%)
02 -=- 02 - Tierra en mano.wav -=- CDDA (100%)
03 -=- 03 - Clandestino.wav -=- CDDA (100%)
04 -=- 04 - Llego cachaito.wav -=- CDDA (99%)
05 -=- 05 - Asi Baila mi Madre.wav -=- CDDA (100%)
06 -=- 06 - Congo Arabe.wav -=- CDDA (100%)
07 -=- 07 - Zamazu.wav -=- CDDA (100%)
08 -=- 08 - Suspiro.wav -=- CDDA (100%)
09 -=- 09 - Ishmael.wav -=- CDDA (100%)
10 -=- 10 - El Niejo.wav -=- CDDA (100%)
11 -=- 11 - Mil congojas.wav -=- CDDA (94%)
12 -=- 12 - Triste alegria.wav -=- CDDA (100%)
13 -=- 13 - Amazamazu.wav -=- CDDA (99%)
14 -=- 14 - Dime que no.wav -=- CDDA (100%)
Summary 99,43% CDDA
96994164
Доп. информация (английский)
Review by Scott Yanow
Pianist Roberto Fonseca's Zamazu contains quite a bit of variety. From Afro-Cuban jazz and a piece that is closer to Indian music, to Omara Portunodo's passionate vocal on "Mil Congojas," originals that sound like tangos and sambas from the 1930s, and orchestral numbers, there is much to savor throughout this continually colorful set. Fonseca can play with great intensity (sometimes hinting at McCoy Tyner) but is at his best caressing lyrical and traditional-sounding melodies. Recorded in Cuba and Brazil, this colorful set leans more towards Cuban than Brazilian music, with Fonseca being quite impressive as both a pianist and a composer. Highly recommended.
04:25
850
Нет комментариев. Ваш будет первым!