Поиск

(Post-Bop/ Latin Jazz) Guillermo Klein - Domador De Huellas - Music Of Cuchi Leguizamon - 2010, FLAC (tracks+.cue) lossless

Треклист:
Guillermo Klein
Domador De Huellas
Music Of Cuchi Leguizamon
Жанр: Post-Bop/ Latin Jazz
Год издания диска: 2010
Страна: Argentine
Аудио кодек: FLAC (*.flac)
Тип рипа: tracks+.cue
Битрейт аудио: lossless
Продолжительность: 1:11:48
Источник (релизер): what.cd
Наличие сканов в содержимом раздачи: нет
Треклист:
01. Domador De Huellas (3:06)
02. Zamba Para La Viuda (6:09)
03. Chacarera Del Zorro (3:25)
04. Coplas Del Regreso (8:02)
05. La Pomena (4:16)
06. Zamba De Lozano (4:24)
07. De Solo Estar (3:16)
08. Me Voy Quedando (3:28)
09. Cartas De Amor Que Se Queman (6:03)
10. Maturana (4:09)
11. Sereneta Del 900 (9:05)
12. Carnavalito Del Duende (5:54)
13. Zamba Del Carnaval (5:41)
14. La Mulanima (4:50)
 
Лог создания рипа
Exact Audio Copy V0.99 prebeta 5 from 4. May 2009
EAC extraction logfile from 24. January 2011, 21:44
Guillermo Klein / Domador De Huellas - Music Of "Cuchi" Leguizamon
Used drive : HL-DT-STDVDRRW GWA-4166B Adapter: 0 ID: 0
Read mode : Secure
Utilize accurate stream : Yes
Defeat audio cache : Yes
Make use of C2 pointers : No
Read offset correction : 102
Overread into Lead-In and Lead-Out : No
Fill up missing offset samples with silence : Yes
Delete leading and trailing silent blocks : No
Null samples used in CRC calculations : Yes
Used interface : Native Win32 interface for Win NT & 2000
Gap handling : Appended to previous track
Used output format : User Defined Encoder
Selected bitrate : 320 kBit/s
Quality : High
Add ID3 tag : No
Command line compressor : C:\Program Files (x86)\Exact Audio Copy\Flac\flac.exe
Additional command line options : -V -8 -T "artist=%a" -T "title=%t" -T "album=%g" -T "date=%y" -T "tracknumber=%n" -T "genre=%m" %s
TOC of the extracted CD
Track | Start | Length | Start sector | End sector
---------------------------------------------------------
1 | 0:00.00 | 3:05.74 | 0 | 13948
2 | 3:05.74 | 6:08.57 | 13949 | 41605
3 | 9:14.56 | 3:24.70 | 41606 | 56975
4 | 12:39.51 | 8:02.00 | 56976 | 93125
5 | 20:41.51 | 4:15.59 | 93126 | 112309
6 | 24:57.35 | 4:24.23 | 112310 | 132132
7 | 29:21.58 | 3:16.24 | 132133 | 146856
8 | 32:38.07 | 3:28.05 | 146857 | 162461
9 | 36:06.12 | 6:02.71 | 162462 | 189682
10 | 42:09.08 | 4:09.19 | 189683 | 208376
11 | 46:18.27 | 9:04.47 | 208377 | 249223
12 | 55:22.74 | 5:53.73 | 249224 | 275771
13 | 61:16.72 | 5:40.53 | 275772 | 301324
14 | 66:57.50 | 4:50.25 | 301325 | 323099
15 | 74:20.00 | 1:07.58 | 334500 | 339582
Track 1
Filename D:\EACrips\Guillermo Klein\Domador De Huellas - Music Of 'Cuchi' Leguizamon [2009]\01 Domador De Huellas.wav
Pre-gap length 0:00:02.00
Peak level 98.8 %
Track quality 100.0 %
Test CRC 368CB2FA
Copy CRC 368CB2FA
Track not present in AccurateRip database
Copy OK
Track 2
Filename D:\EACrips\Guillermo Klein\Domador De Huellas - Music Of 'Cuchi' Leguizamon [2009]\02 Zamba Para La Viuda.wav
Pre-gap length 1:06:54.11
Peak level 98.8 %
Track quality 100.0 %
Test CRC B0824040
Copy CRC B0824040
Track not present in AccurateRip database
Copy OK
Track 3
Filename D:\EACrips\Guillermo Klein\Domador De Huellas - Music Of 'Cuchi' Leguizamon [2009]\03 Chacarera Del Zorro.wav
Pre-gap length 1:06:55.61
Peak level 98.8 %
Track quality 100.0 %
Test CRC 79B87F07
Copy CRC 79B87F07
Track not present in AccurateRip database
Copy OK
Track 4
Filename D:\EACrips\Guillermo Klein\Domador De Huellas - Music Of 'Cuchi' Leguizamon [2009]\04 Coplas Del Regreso.wav
Pre-gap length 1:06:55.26
Peak level 98.9 %
Track quality 100.0 %
Test CRC FD6030E7
Copy CRC FD6030E7
Track not present in AccurateRip database
Copy OK
Track 5
Filename D:\EACrips\Guillermo Klein\Domador De Huellas - Music Of 'Cuchi' Leguizamon [2009]\05 La Pomena.wav
Pre-gap length 0:17:35.22
Peak level 98.8 %
Track quality 100.0 %
Test CRC 2C2B2C9A
Copy CRC 2C2B2C9A
Track not present in AccurateRip database
Copy OK
Track 6
Filename D:\EACrips\Guillermo Klein\Domador De Huellas - Music Of 'Cuchi' Leguizamon [2009]\06 Zamba De Lozano.wav
Pre-gap length 1:06:55.61
Peak level 98.9 %
Track quality 99.9 %
Test CRC DAFD9438
Copy CRC DAFD9438
Track not present in AccurateRip database
Copy OK
Track 7
Filename D:\EACrips\Guillermo Klein\Domador De Huellas - Music Of 'Cuchi' Leguizamon [2009]\07 De Solo Estar.wav
Pre-gap length 0:26:15.44
Peak level 98.9 %
Track quality 100.0 %
Test CRC 9A554594
Copy CRC 9A554594
Track not present in AccurateRip database
Copy OK
Track 8
Filename D:\EACrips\Guillermo Klein\Domador De Huellas - Music Of 'Cuchi' Leguizamon [2009]\08 Me Voy Quedando.wav
Pre-gap length 0:29:31.53
Peak level 98.8 %
Track quality 100.0 %
Test CRC 4F486815
Copy CRC 4F486815
Track not present in AccurateRip database
Copy OK
Track 9
Filename D:\EACrips\Guillermo Klein\Domador De Huellas - Music Of 'Cuchi' Leguizamon [2009]\09 Cartas De Amor Que Se Queman.wav
Pre-gap length 1:06:55.54
Peak level 98.8 %
Track quality 99.9 %
Test CRC 4078D793
Copy CRC 4078D793
Track not present in AccurateRip database
Copy OK
Track 10
Filename D:\EACrips\Guillermo Klein\Domador De Huellas - Music Of 'Cuchi' Leguizamon [2009]\10 Maturana.wav
Pre-gap length 0:39:02.39
Peak level 98.8 %
Track quality 100.0 %
Test CRC 95CAA527
Copy CRC 95CAA527
Track not present in AccurateRip database
Copy OK
Track 11
Filename D:\EACrips\Guillermo Klein\Domador De Huellas - Music Of 'Cuchi' Leguizamon [2009]\11 Sereneta Del 900.wav
Pre-gap length 1:06:55.46
Peak level 98.8 %
Track quality 100.0 %
Test CRC 097D2C25
Copy CRC 097D2C25
Track not present in AccurateRip database
Copy OK
Track 12
Filename D:\EACrips\Guillermo Klein\Domador De Huellas - Music Of 'Cuchi' Leguizamon [2009]\12 Carnavalito Del Duende.wav
Pre-gap length 0:52:16.30
Peak level 98.8 %
Track quality 99.9 %
Test CRC EE585B78
Copy CRC EE585B78
Track not present in AccurateRip database
Copy OK
Track 13
Filename D:\EACrips\Guillermo Klein\Domador De Huellas - Music Of 'Cuchi' Leguizamon [2009]\13 Zamba Del Carnaval.wav
Pre-gap length 0:58:10.13
Peak level 98.8 %
Track quality 99.9 %
Test CRC 13E102F7
Copy CRC 13E102F7
Track not present in AccurateRip database
Copy OK
Track 14
Filename D:\EACrips\Guillermo Klein\Domador De Huellas - Music Of 'Cuchi' Leguizamon [2009]\14 La Mulanima.wav
Pre-gap length 1:06:57.32
Peak level 98.8 %
Track quality 100.0 %
Test CRC 4D6169D1
Copy CRC 4D6169D1
Track not present in AccurateRip database
Copy OK
None of the tracks are present in the AccurateRip database
No errors occurred
End of status report
 
Содержание индексной карты (.CUE)
REM GENRE "Contemporary Jazz"
REM DATE 2009
REM DISCID E111AF0F
REM COMMENT "ExactAudioCopy v0.99pb5"
PERFORMER "Guillermo Klein"
TITLE "Domador De Huellas - Music Of 'Cuchi' Leguizamon"
FILE "Guillermo Klein\Domador De Huellas - Music Of 'Cuchi' Leguizamon [2009]\01 Domador De Huellas.wav" WAVE
TRACK 01 AUDIO
TITLE "Domador De Huellas"
PERFORMER "Guillermo Klein"
INDEX 01 00:00:00
TRACK 02 AUDIO
TITLE "Zamba Para La Viuda"
PERFORMER "Guillermo Klein"
INDEX 00 47:12:63
FILE "Guillermo Klein\Domador De Huellas - Music Of 'Cuchi' Leguizamon [2009]\02 Zamba Para La Viuda.wav" WAVE
INDEX 01 00:00:00
TRACK 03 AUDIO
TITLE "Chacarera Del Zorro"
PERFORMER "Guillermo Klein"
INDEX 00 40:13:71
FILE "Guillermo Klein\Domador De Huellas - Music Of 'Cuchi' Leguizamon [2009]\03 Chacarera Del Zorro.wav" WAVE
INDEX 01 00:00:00
TRACK 04 AUDIO
TITLE "Coplas Del Regreso"
PERFORMER "Guillermo Klein"
INDEX 00 47:30:44
FILE "Guillermo Klein\Domador De Huellas - Music Of 'Cuchi' Leguizamon [2009]\04 Coplas Del Regreso.wav" WAVE
INDEX 01 00:00:00
TRACK 05 AUDIO
TITLE "La Pomena"
PERFORMER "Guillermo Klein"
INDEX 00 01:27:53
FILE "Guillermo Klein\Domador De Huellas - Music Of 'Cuchi' Leguizamon [2009]\05 La Pomena.wav" WAVE
INDEX 01 00:00:00
TRACK 06 AUDIO
TITLE "Zamba De Lozano"
PERFORMER "Guillermo Klein"
INDEX 00 48:20:73
FILE "Guillermo Klein\Domador De Huellas - Music Of 'Cuchi' Leguizamon [2009]\06 Zamba De Lozano.wav" WAVE
INDEX 01 00:00:00
TRACK 07 AUDIO
TITLE "De Solo Estar"
PERFORMER "Guillermo Klein"
INDEX 00 89:09:54
FILE "Guillermo Klein\Domador De Huellas - Music Of 'Cuchi' Leguizamon [2009]\07 De Solo Estar.wav" WAVE
INDEX 01 00:00:00
TRACK 08 AUDIO
TITLE "Me Voy Quedando"
PERFORMER "Guillermo Klein"
INDEX 00 84:45:46
FILE "Guillermo Klein\Domador De Huellas - Music Of 'Cuchi' Leguizamon [2009]\08 Me Voy Quedando.wav" WAVE
INDEX 01 00:00:00
TRACK 09 AUDIO
TITLE "Cartas De Amor Que Se Queman"
PERFORMER "Guillermo Klein"
INDEX 00 47:33:26
FILE "Guillermo Klein\Domador De Huellas - Music Of 'Cuchi' Leguizamon [2009]\09 Cartas De Amor Que Se Queman.wav" WAVE
INDEX 01 00:00:00
TRACK 10 AUDIO
TITLE "Maturana"
PERFORMER "Guillermo Klein"
INDEX 00 78:01:32
FILE "Guillermo Klein\Domador De Huellas - Music Of 'Cuchi' Leguizamon [2009]\10 Maturana.wav" WAVE
INDEX 01 00:00:00
TRACK 11 AUDIO
TITLE "Sereneta Del 900"
PERFORMER "Guillermo Klein"
INDEX 00 48:14:48
FILE "Guillermo Klein\Domador De Huellas - Music Of 'Cuchi' Leguizamon [2009]\11 Sereneta Del 900.wav" WAVE
INDEX 01 00:00:00
TRACK 12 AUDIO
TITLE "Carnavalito Del Duende"
PERFORMER "Guillermo Klein"
INDEX 00 67:49:17
FILE "Guillermo Klein\Domador De Huellas - Music Of 'Cuchi' Leguizamon [2009]\12 Carnavalito Del Duende.wav" WAVE
INDEX 01 00:00:00
TRACK 13 AUDIO
TITLE "Zamba Del Carnaval"
PERFORMER "Guillermo Klein"
INDEX 00 58:44:60
FILE "Guillermo Klein\Domador De Huellas - Music Of 'Cuchi' Leguizamon [2009]\13 Zamba Del Carnaval.wav" WAVE
INDEX 01 00:00:00
TRACK 14 AUDIO
TITLE "La Mulanima"
PERFORMER "Guillermo Klein"
INDEX 00 49:44:21
FILE "Guillermo Klein\Domador De Huellas - Music Of 'Cuchi' Leguizamon [2009]\14 La Mulanima.wav" WAVE
INDEX 01 00:00:00
TRACK 15 MODEx/2xxx
TITLE "Data track"
PERFORMER "Guillermo Klein"
INDEX 00 04:50:25
 
Лог проверки качества
AUDIOCHECKER v2.0 beta (build 457) - by Dester - opdester@freemail.hu
~~~~~~~~~~~~~~~~~~~~~~~~~~~~~~~~~~
-=== DO NOT EDIT THIS FILE! ===-
Path: ...\Guillermo Klein - Domador De Huellas - Music Of Cuchi Leguizamon (2010)
01 -=- 01 Domador De Huellas.flac -=- CDDA (100%)
02 -=- 02 Zamba Para La Viuda.flac -=- CDDA (100%)
03 -=- 03 Chacarera Del Zorro.flac -=- CDDA (100%)
04 -=- 04 Coplas Del Regreso.flac -=- CDDA (100%)
05 -=- 05 La Pomena.flac -=- CDDA (100%)
06 -=- 06 Zamba De Lozano.flac -=- CDDA (100%)
07 -=- 07 De Solo Estar.flac -=- CDDA (100%)
08 -=- 08 Me Voy Quedando.flac -=- CDDA (100%)
09 -=- 09 Cartas De Amor Que Se Queman.flac -=- CDDA (99%)
10 -=- 10 Maturana.flac -=- CDDA (100%)
11 -=- 11 Sereneta Del 900.flac -=- CDDA (100%)
12 -=- 12 Carnavalito Del Duende.flac -=- CDDA (100%)
13 -=- 13 Zamba Del Carnaval.flac -=- CDDA (99%)
14 -=- 14 La Mulanima.flac -=- CDDA (100%)
Summary 99,86% CDDA
147012532
 
Об альбоме
"One of the great pleasures of following today's jazz lies in introducing people to the music of Argentine composer and pianist Guillermo Klein. He flies in somewhat under the radar; his bands don't play more than a handful of U.S. dates every year. But it's astounding stuff when they do. There's counterpoint in there, and chacarera, and chorales, and perhaps a bit of Count Basie's spirit. It belongs to a new breed of Latin jazz, the seamless mix of folkloric forms and jazz instrumentation and whatever classical or pop influences come to mind. That, or it's also a new kind of something else.
Since leaving New York around the turn of the century, Klein has released four more studio albums and one live record. He's also been through Argentina, Spain and back to Buenos Aires, where he now has a new band. That's news, too: Klein made three of those documents with Los Guachos, the "little big band" which featured such world-beating (and U.S.-based) talents as Miguel Zenón, Bill McHenry and Luciana Souza. The group on the new Domador de Huellas features a few Guachos — fellow Argentines Richard Nant and Juan Cruz de Urquiza — but it's a smaller combo, and it's happily resident in Argentina.
Klein has a new muse, too: The late Gustavo "Cuchi" Leguizamón. He was a musician, a fellow composer and pianist and singer, who set poetry (that of others, and also his own) to the folk forms of northwestern Argentina: zambas, chacareras, vidalas, carnavalitos. He was also a lawyer by trade — a former State Attorney, at that — and a liberal-arts professor. Accordingly, up until his death in 2000, "El Cuchi" was also a folk hero and local legend.
The title of this record, Domador de Huellas, translates to "tamer of footprints." That's Leguizamón's turn of phrase, but it neatly approximates what Klein has attempted here: a translation of El Cuchi's idiosyncratic folk songs to the amalgamated un-style of jazz he knows. It makes for a disc swimming in grooves, slowed by ballads, stirred by trumpet blasts and punctuated by human voices — both from incredible singers like Liliana Herrero and Carme Canela, and also from Klein's own untrained but affecting throat. Basically, it sounds like a Guillermo Klein album. And that's worth celebrating."
-PATRICK JARENWATTANANON (NPR)
20:14
233
Нет комментариев. Ваш будет первым!