Поиск

(Post-Bop) Kenny Garrett - Seeds From The Underground - 2012, FLAC (tracks+.cue), lossless

Треклист:
Kenny Garrett / Seeds From The Underground
Жанр: Post-Bop
Страна-производитель диска: USA
Год издания: 2012
Издатель (лейбл): Mack Avenue
Номер по каталогу:MAC1063
Страна: USA
Аудиокодек: FLAC (*.flac)
Тип рипа: tracks+.cue
Битрейт аудио: lossless
Продолжительность: 1:10:04
Источник (релизер): вата
Наличие сканов в содержимом раздачи: нет
Треклист:
01. Boogety Boogety
02. J. Mac
03. Wiggins
04. Haynes Here
05. Detroit
06. Seeds From The Underground
07. Du-Wo-Mo
08. Welcome Earth Song
09. Ballad Jarrett
10. Laviso, I Bon?
 
Лог создания рипа
Exact Audio Copy V1.0 beta 2 from 29. April 2011
EAC extraction logfile from 13. April 2012, 17:44
Kenny Garrett / Seeds From The Underground
Used drive : ATAPI DVD A DH16AASH Adapter: 1 ID: 1
Read mode : Secure
Utilize accurate stream : Yes
Defeat audio cache : Yes
Make use of C2 pointers : No
Read offset correction : 6
Overread into Lead-In and Lead-Out : No
Fill up missing offset samples with silence : Yes
Delete leading and trailing silent blocks : No
Null samples used in CRC calculations : Yes
Used interface : Native Win32 interface for Win NT & 2000
Gap handling : Appended to previous track
Used output format : User Defined Encoder
Selected bitrate : 1024 kBit/s
Quality : High
Add ID3 tag : No
Command line compressor : C:\Program Files (x86)\FLAC\flac.exe
Additional command line options : -8 -V -T "ARTIST=%artist%" -T "TITLE=%title%" -T "ALBUM=%albumtitle%" -T "DATE=%year%" -T "TRACKNUMBER=%tracknr%" -T "GENRE=%genre%" -T "PERFORMER=%albuminterpret%" -T "COMPOSER=%composer%" %haslyrics%--tag-from-file=LYRICS
TOC of the extracted CD
Track | Start | Length | Start sector | End sector
---------------------------------------------------------
1 | 0:00.00 | 9:03.07 | 0 | 40731
2 | 9:03.07 | 6:26.25 | 40732 | 69706
3 | 15:29.32 | 7:37.23 | 69707 | 104004
4 | 23:06.55 | 7:27.19 | 104005 | 137548
5 | 30:33.74 | 4:21.45 | 137549 | 157168
6 | 34:55.44 | 8:08.32 | 157169 | 193800
7 | 43:04.01 | 8:16.07 | 193801 | 231007
8 | 51:20.08 | 8:43.23 | 231008 | 270255
9 | 60:03.31 | 6:22.09 | 270256 | 298914
10 | 66:25.40 | 3:38.56 | 298915 | 315320
Track 1
Filename F:\Converted Flac\01 Boogety Boogety.wav
Pre-gap length 0:00:02.00
Peak level 99.8 %
Extraction speed 3.8 X
Track quality 100.0 %
Test CRC DA427458
Copy CRC DA427458
Track not present in AccurateRip database
Copy OK
Track 2
Filename F:\Converted Flac\02 J. Mac.wav
Peak level 99.8 %
Extraction speed 4.3 X
Track quality 100.0 %
Test CRC 0C4EFA38
Copy CRC 0C4EFA38
Track not present in AccurateRip database
Copy OK
Track 3
Filename F:\Converted Flac\03 Wiggins.wav
Pre-gap length 0:00:01.33
Peak level 89.0 %
Extraction speed 4.8 X
Track quality 100.0 %
Test CRC A9AE0917
Copy CRC A9AE0917
Track not present in AccurateRip database
Copy OK
Track 4
Filename F:\Converted Flac\04 Haynes Here.wav
Pre-gap length 0:00:01.41
Peak level 99.8 %
Extraction speed 5.1 X
Track quality 100.0 %
Test CRC A05098C5
Copy CRC A05098C5
Track not present in AccurateRip database
Copy OK
Track 5
Filename F:\Converted Flac\05 Detroit.wav
Peak level 98.0 %
Extraction speed 4.3 X
Track quality 99.9 %
Test CRC 4945FD21
Copy CRC 4945FD21
Track not present in AccurateRip database
Copy OK
Track 6
Filename F:\Converted Flac\06 Seeds From The Underground.wav
Peak level 99.8 %
Extraction speed 5.5 X
Track quality 100.0 %
Test CRC 5F4FF592
Copy CRC 5F4FF592
Track not present in AccurateRip database
Copy OK
Track 7
Filename F:\Converted Flac\07 Du-Wo-Mo.wav
Peak level 99.8 %
Extraction speed 6.1 X
Track quality 100.0 %
Test CRC 9AEDA442
Copy CRC 9AEDA442
Track not present in AccurateRip database
Copy OK
Track 8
Filename F:\Converted Flac\08 Welcome Earth Song.wav
Pre-gap length 0:00:01.36
Peak level 99.8 %
Extraction speed 6.4 X
Track quality 100.0 %
Test CRC F866792F
Copy CRC F866792F
Track not present in AccurateRip database
Copy OK
Track 9
Filename F:\Converted Flac\09 Ballad Jarrett.wav
Peak level 94.1 %
Extraction speed 5.6 X
Track quality 99.9 %
Test CRC 5E0A7AEE
Copy CRC 5E0A7AEE
Track not present in AccurateRip database
Copy OK
Track 10
Filename F:\Converted Flac\10 Laviso, I Bon.wav
Pre-gap length 0:00:04.16
Peak level 99.8 %
Extraction speed 6.3 X
Track quality 100.0 %
Test CRC 4C88F791
Copy CRC 4C88F791
Track not present in AccurateRip database
Copy OK
None of the tracks are present in the AccurateRip database
No errors occurred
End of status report
==== Log checksum B77314C5141A40D57AD853B1F009559A989A143EA4209C5F2FB7ED5296A2F997 ====
 
Содержание индексной карты (.CUE)
REM GENRE Jazz
REM DATE 2012
REM DISCID 9F106C0A
REM COMMENT "ExactAudioCopy v1.0b2"
PERFORMER "Kenny Garrett"
TITLE "Seeds From The Underground"
FILE "01 Boogety Boogety.wav" WAVE
TRACK 01 AUDIO
TITLE "Boogety Boogety"
PERFORMER "Kenny Garrett"
ISRC USMAR1206301
INDEX 01 00:00:00
FILE "02 J. Mac.wav" WAVE
TRACK 02 AUDIO
TITLE "J. Mac"
PERFORMER "Kenny Garrett"
ISRC USMAR1206302
INDEX 01 00:00:00
TRACK 03 AUDIO
TITLE "Wiggins"
PERFORMER "Kenny Garrett"
ISRC USMAR1206303
INDEX 00 06:25:00
FILE "03 Wiggins.wav" WAVE
INDEX 01 00:00:00
TRACK 04 AUDIO
TITLE "Haynes Here"
PERFORMER "Kenny Garrett"
ISRC USMAR1206304
INDEX 00 07:35:67
FILE "04 Haynes Here.wav" WAVE
INDEX 01 00:00:00
FILE "05 Detroit.wav" WAVE
TRACK 05 AUDIO
TITLE "Detroit"
PERFORMER "Kenny Garrett"
ISRC USMAR1206305
INDEX 01 00:00:00
FILE "06 Seeds From The Underground.wav" WAVE
TRACK 06 AUDIO
TITLE "Seeds From The Underground"
PERFORMER "Kenny Garrett"
ISRC USMAR1206306
INDEX 01 00:00:00
FILE "07 Du-Wo-Mo.wav" WAVE
TRACK 07 AUDIO
TITLE "Du-Wo-Mo"
PERFORMER "Kenny Garrett"
ISRC USMAR1206307
INDEX 01 00:00:00
TRACK 08 AUDIO
TITLE "Welcome Earth Song"
PERFORMER "Kenny Garrett"
ISRC USMAR1206308
INDEX 00 08:14:55
FILE "08 Welcome Earth Song.wav" WAVE
INDEX 01 00:00:00
FILE "09 Ballad Jarrett.wav" WAVE
TRACK 09 AUDIO
TITLE "Ballad Jarrett"
PERFORMER "Kenny Garrett"
ISRC USMAR1206309
INDEX 01 00:00:00
TRACK 10 AUDIO
TITLE "Laviso, I Bon?"
PERFORMER "Kenny Garrett"
ISRC USMAR1206310
INDEX 00 06:17:72
FILE "10 Laviso, I Bon.wav" WAVE
INDEX 01 00:00:00
 
Состав
Kenny Garrett (Alto and Soprano Saxophone, Piano)
Benito Gonzalez (Piano)
Nat Reeves (Bass)
Ronald Bruner (Drums)
Rudy Bird (Percussion)
Nedelka Prescod (Vocals)
Приватный:
Нет (DHT включён)
Размер:
465.47 Мб (488,079,309 байт) » файлов: 15
Участники:
0 раздают, 0 качают (0 участников всего)
Внешние участники:
3 раздают, 1 качают (4 участников всего) [ Обновить ]
For power users only: no seeders - write to support@pro-jazz.com. Для power user: нет сидеров - пишите на support@pro-jazz.com.
01:22
105
Нет комментариев. Ваш будет первым!