Поиск

(Post-Bop) Kenny Garrett - African Exchange Student - 1990, FLAC (image+.cue), lossless

Треклист:
Kenny Garrett - African Exchange Student
Жанр: Post-Bop
Страна-производитель диска: Germany
Год издания диска: 1990
Издатель (лейбл): Atlantic
Номер по каталогу: 7567-82156-2
Страна: USA Detroit, MI
Аудиокодек: FLAC (*.flac)
Тип рипа: image+.cue
Битрейт аудио: lossless
Продолжительность: 01:06:47
Источник (релизер): into
Наличие сканов в содержимом раздачи: да
01. Ja - Hed [05:58]
02. Mack The Knife [08:40]
03. African Exchange Student [09:18]
04. Someday We'll All Be Free [05:43]
05. One World Through [01:37]
06. Straight Street [04:57]
07. Shaw [06:40]
08. Lullaby Of Isfahan [06:10]
09. One Finger Snap [06:15]
10. Your Country - Ness [05:27]
11. Nostradamus [06:00]
 
Лог создания рипа
Exact Audio Copy V0.99 prebeta 5 from 4. May 2009
EAC extraction logfile from 5. December 2011, 23:24
Kenny Garrett / African Exchange Student
Used drive : _NEC DVD_RW ND-3500AG Adapter: 0 ID: 0
Read mode : Secure
Utilize accurate stream : Yes
Defeat audio cache : Yes
Make use of C2 pointers : No
Read offset correction : 48
Overread into Lead-In and Lead-Out : No
Fill up missing offset samples with silence : Yes
Delete leading and trailing silent blocks : No
Null samples used in CRC calculations : Yes
Used interface : Native Win32 interface for Win NT & 2000
Used output format : User Defined Encoder
Selected bitrate : 768 kBit/s
Quality : High
Add ID3 tag : No
Command line compressor : C:\Program Files\Exact Audio Copy\FLAC\FLAC.EXE
Additional command line options : -6 -V -T "ARTIST=%a" -T "TITLE=%t" -T "ALBUM=%g" -T "DATE=%y" -T "TRACKNUMBER=%n" -T "GENRE=%m" -T "COMMENT=%e" %s -o %d
TOC of the extracted CD
Track | Start | Length | Start sector | End sector
---------------------------------------------------------
1 | 0:00.00 | 5:58.07 | 0 | 26856
2 | 5:58.07 | 8:40.18 | 26857 | 65874
3 | 14:38.25 | 9:18.10 | 65875 | 107734
4 | 23:56.35 | 5:43.00 | 107735 | 133459
5 | 29:39.35 | 1:37.05 | 133460 | 140739
6 | 31:16.40 | 4:57.47 | 140740 | 163061
7 | 36:14.12 | 6:40.15 | 163062 | 193076
8 | 42:54.27 | 6:10.03 | 193077 | 220829
9 | 49:04.30 | 6:15.22 | 220830 | 248976
10 | 55:19.52 | 5:27.25 | 248977 | 273526
11 | 60:47.02 | 6:00.68 | 273527 | 300594
Range status and errors
Selected range
Filename J:\eMusic\Rip\Kenny Garrett - African Exchange Student.wav
Peak level 97.7 %
Range quality 100.0 %
Copy CRC 107B2140
Copy OK
No errors occurred
AccurateRip summary
Track 1 not present in database
Track 2 not present in database
Track 3 not present in database
Track 4 not present in database
Track 5 not present in database
Track 6 not present in database
Track 7 not present in database
Track 8 not present in database
Track 9 not present in database
Track 10 not present in database
Track 11 not present in database
None of the tracks are present in the AccurateRip database
End of status report
 
Содержание индексной карты (.CUE)
REM GENRE Jazz
REM DATE 1990
REM DISCID AC0FA70B
REM COMMENT "ExactAudioCopy v0.99pb5"
PERFORMER "Kenny Garrett"
TITLE "African Exchange Student"
FILE "Kenny Garrett - African Exchange Student.flac" WAVE
TRACK 01 AUDIO
TITLE "Ja - Hed"
PERFORMER "Kenny Garrett"
INDEX 01 00:00:00
TRACK 02 AUDIO
TITLE "Mack The Knife"
PERFORMER "Kenny Garrett"
INDEX 00 05:57:25
INDEX 01 05:58:07
TRACK 03 AUDIO
TITLE "African Exchange Student"
PERFORMER "Kenny Garrett"
INDEX 00 14:34:45
INDEX 01 14:38:25
TRACK 04 AUDIO
TITLE "Someday We'll All Be Free"
PERFORMER "Kenny Garrett"
INDEX 00 23:53:17
INDEX 01 23:56:35
TRACK 05 AUDIO
TITLE "One World Through"
PERFORMER "Kenny Garrett"
INDEX 00 29:35:57
INDEX 01 29:39:35
TRACK 06 AUDIO
TITLE "Straight Street"
PERFORMER "Kenny Garrett"
INDEX 00 31:13:60
INDEX 01 31:16:40
TRACK 07 AUDIO
TITLE "Shaw"
PERFORMER "Kenny Garrett"
INDEX 00 36:13:25
INDEX 01 36:14:12
TRACK 08 AUDIO
TITLE "Lullaby Of Isfahan"
PERFORMER "Kenny Garrett"
INDEX 00 42:52:67
INDEX 01 42:54:27
TRACK 09 AUDIO
TITLE "One Finger Snap"
PERFORMER "Kenny Garrett"
INDEX 00 49:02:35
INDEX 01 49:04:30
TRACK 10 AUDIO
TITLE "Your Country - Ness"
PERFORMER "Kenny Garrett"
INDEX 00 55:18:50
INDEX 01 55:19:52
TRACK 11 AUDIO
TITLE "Nostradamus"
PERFORMER "Kenny Garrett"
INDEX 00 60:46:30
INDEX 01 60:47:02
 
Лог проверки качества
-----------------------
DON'T MODIFY THIS FILE
-----------------------
PERFORMER: auCDtect Task Manager, ver. 1.5.1RC6 build 1.5.1.7
Copyright (c) 2008-2010 y-soft. All rights reserved
http://y-soft.org
ANALYZER: auCDtect: CD records authenticity detector, version 0.8.2
Copyright (c) 2004 Oleg Berngardt. All rights reserved.
Copyright (c) 2004 Alexander Djourik. All rights reserved.
FILE: Kenny Garrett - African Exchange Student.flac
Size: 413491786 Hash: 2B2F6D086A453D8E9C879057784A598D Accuracy: -m0
Conclusion: CDDA 100%
Signature: E180C4EB0BF17FCAB34DD4D89720E84EB9FBBC64
 
Состав
Kenny Garrett (vocals, alto saxophone, flute)
Mulgrew Miller (piano)
Charnett Moffett, Ron Carter (bass)
Tony Reedus, Elvin Jones (drums)
Tito Ocasio, Rudy Bird, Steve Thornton (percussion)
Приватный:
Нет (DHT включён)
Размер:
401.14 Мб (420,620,588 байт) » файлов: 9
Участники:
0 раздают, 1 качают (1 участников всего)
Внешние участники:
2 раздают, 1 качают (3 участников всего) [ Обновить ]
Скорость:
721.90 Кб/c 0/c
For power users only: no seeders - write to support@pro-jazz.com. Для power user: нет сидеров - пишите на support@pro-jazz.com.
18:38
106
Нет комментариев. Ваш будет первым!