Вы используете незарегистрированную версию компонента "Вкладки"!

Поиск

(Post Bop) John Hicks Trio - Moanin' Potrtait Of Art Blakey - 1997, FLAC (image+.cue), lossless

(Post Bop) John Hicks Trio - Moanin' Potrtait Of Art Blakey - 1997, FLAC (image+.cue), lossless
Треклист:
John Hicks Trio - Moanin' Potrtait Of Art Blakey
Жанр: Post Bop
Год выпуска диска: 1997
Производитель диска: Japan
Аудио кодек: FLAC
Тип рипа: image+.cue
Битрейт аудио: lossless
Продолжительность: 44:44
Трэклист:
1. No Problem (D. Jordan) 7:20
2. Whisper Not (B. Golson) 7:00
3. Nica's Dream (H. Silver) 8:10
4. Moanin' (B. Timmons) 7:14
5. Blues March (B. Golson) 7:06
6. A Night In Tunisia (D. Gillesrie, F. Paparelli) 7:27
Доп. информация:
John Hicks - piano
Marcus Maclaurene - bass
Victor Lewis - drums
 
Отчет EAC
Exact Audio Copy V0.99 prebeta 5 from 4. May 2009
EAC extraction logfile from 30. January 2010, 18:12
John Hicks Trio / Moanin' - Portrait of Art Blakey
Used drive : HL-DT-STDVD-RAM GH22NP20 Adapter: 0 ID: 0
Read mode : Secure
Utilize accurate stream : Yes
Defeat audio cache : Yes
Make use of C2 pointers : No
Read offset correction : 102
Overread into Lead-In and Lead-Out : No
Fill up missing offset samples with silence : Yes
Delete leading and trailing silent blocks : No
Null samples used in CRC calculations : Yes
Used interface : Installed external ASPI interface
Used output format : User Defined Encoder
Selected bitrate : 768 kBit/s
Quality : High
Add ID3 tag : No
Command line compressor : C:\Program Files\Exact Audio Copy\FLAC\FLAC.EXE
Additional command line options : -8 -V -T "ARTIST=%a" -T "TITLE=%t" -T "ALBUM=%g" -T "DATE=%y" -T "TRACKNUMBER=%n" -T "GENRE=%m" -T "COMMENT=%e" %s -o %d
TOC of the extracted CD
Track | Start | Length | Start sector | End sector
---------------------------------------------------------
1 | 0:00.00 | 7:25.06 | 0 | 33380
2 | 7:25.06 | 7:05.05 | 33381 | 65260
3 | 14:30.11 | 8:14.44 | 65261 | 102354
4 | 22:44.55 | 7:18.47 | 102355 | 135251
5 | 30:03.27 | 7:13.29 | 135252 | 167755
6 | 37:16.56 | 7:26.06 | 167756 | 201211
Range status and errors
Selected range
Filename D:\торрент\Мои раздачи\John Hicks Trio - Moanin' - Portrait of Art Blakey\John Hicks Trio - Moanin' - Portrait of Art Blakey.wav
Peak level 100.0 %
Range quality 100.0 %
Test CRC C050976F
Copy CRC C050976F
Copy OK
No errors occurred
End of status report
Any questions - support@pro-jazz.com.
Есть вопросы - support@pro-jazz.com
06:10
221
Нет комментариев. Ваш будет первым!