Вы используете незарегистрированную версию компонента "Вкладки"!

Поиск

(Post-Bop) James Moody - Moody's Mood For Blues (1955) - 1994, FLAC (tracks+.cue), lossless

(Post-Bop) James Moody - Moody's Mood For Blues (1955) - 1994, FLAC (tracks+.cue), lossless
Треклист:
James Moody – Moody's Mood For Blues (1955)
Жанр: Post-Bop
Год издания диска: 1994
Издатель (лейбл): Prestige
Номер по каталогу: OJCCD-1837-2
Аудиокодек: FLAC (*.flac)
Тип рипа: tracks+.cue
Битрейт аудио: lossless
Продолжительность: 56:01
Источник (релизер): durmoll
Наличие сканов в содержимом раздачи: да
Треклист:
01. I'm Gone (3:26)
02. A Hundred Years From Today (2:50)
03. Keepin' Up With Jonesy (3:19)
04. Workshop (3:14)
05. That Man O' Mine (3:03)
06. Over The Rainbow (3:07)
07. Jack Raggs (2:45)
08. Mambo With Moody (4:12)
09. It Might As Well Be Spring (take 1) (3:57)
10. It Might As Well Be Spring (take 2) (3:51)
11. Blues In The Closet (3:58)
12. Moody's Mood For Blues (5:41)
13. Nobody Knows The Trouble I've Seen (2:52)
14. I Got The Blues (2:49)
15. Blue Walk (3:17)
16. Faster James (3:41)
Personnel:
James Moody - as, ts
Dave Burns - tp
William Shepherd - tb
Pee Wee Moore - bars
Sadik Hakim, Jimmy Boyd - p
John Lathan - b
Joe Harris, Clarence Johnson - d
Eddie Jefferson, Iona Wade - vo
 
 
Лог создания рипа
Exact Audio Copy V1.0 beta 3 from 29. August 2011
EAC extraction logfile from 17. January 2012, 9:09
James Moody / Moody's Mood For Blues
Used drive : ASUS DRW-22D1S Adapter: 2 ID: 0
Read mode : Secure
Utilize accurate stream : Yes
Defeat audio cache : Yes
Make use of C2 pointers : No
Read offset correction : 102
Overread into Lead-In and Lead-Out : No
Fill up missing offset samples with silence : Yes
Delete leading and trailing silent blocks : No
Null samples used in CRC calculations : Yes
Used interface : Native Win32 interface for Win NT & 2000
Gap handling : Appended to previous track
Used output format : Internal WAV Routines
Sample format : 44.100 Hz; 16 Bit; Stereo
TOC of the extracted CD
Track | Start | Length | Start sector | End sector
---------------------------------------------------------
1 | 0:00.00 | 3:25.57 | 0 | 15431
2 | 3:25.57 | 2:49.55 | 15432 | 28161
3 | 6:15.37 | 3:19.10 | 28162 | 43096
4 | 9:34.47 | 3:14.10 | 43097 | 57656
5 | 12:48.57 | 3:02.45 | 57657 | 71351
6 | 15:51.27 | 3:07.23 | 71352 | 85399
7 | 18:58.50 | 2:44.70 | 85400 | 97769
8 | 21:43.45 | 4:12.02 | 97770 | 116671
9 | 25:55.47 | 3:56.38 | 116672 | 134409
10 | 29:52.10 | 3:51.12 | 134410 | 151746
11 | 33:43.22 | 3:58.25 | 151747 | 169621
12 | 37:41.47 | 5:40.60 | 169622 | 195181
13 | 43:22.32 | 2:51.63 | 195182 | 208069
14 | 46:14.20 | 2:49.07 | 208070 | 220751
15 | 49:03.27 | 3:16.70 | 220752 | 235521
16 | 52:20.22 | 3:40.50 | 235522 | 252071
Track 1
Filename D:\01 - I'm Gone.wav
Pre-gap length 0:00:02.00
Peak level 100.0 %
Extraction speed 19.5 X
Track quality 100.0 %
Test CRC 527E1A97
Copy CRC 527E1A97
Accurately ripped (confidence 3) [9593D7DC] (AR v1)
Copy OK
Track 2
Filename D:\02 - A Hundred Years From Today.wav
Pre-gap length 0:00:03.67
Peak level 77.3 %
Extraction speed 35.7 X
Track quality 100.0 %
Test CRC FE18A605
Copy CRC FE18A605
Accurately ripped (confidence 3) [9827E56A] (AR v1)
Copy OK
Track 3
Filename D:\03 - Keepin' Up With Jonesy.wav
Pre-gap length 0:00:02.55
Peak level 94.6 %
Extraction speed 24.8 X
Track quality 100.0 %
Test CRC E07774F7
Copy CRC E07774F7
Accurately ripped (confidence 3) [E4227D00] (AR v1)
Copy OK
Track 4
Filename D:\04 - Workshop.wav
Pre-gap length 0:00:03.52
Peak level 96.1 %
Extraction speed 28.0 X
Track quality 100.0 %
Test CRC 55A43658
Copy CRC 55A43658
Accurately ripped (confidence 3) [823EB43F] (AR v1)
Copy OK
Track 5
Filename D:\05 - That Man O' Mine.wav
Pre-gap length 0:00:02.67
Peak level 100.0 %
Extraction speed 15.2 X
Track quality 99.9 %
Test CRC 9F224F24
Copy CRC 9F224F24
Accurately ripped (confidence 3) [871A3687] (AR v1)
Copy OK
Track 6
Filename D:\06 - Over The Rainbow.wav
Pre-gap length 0:00:04.40
Peak level 99.6 %
Extraction speed 31.7 X
Track quality 100.0 %
Test CRC D829BCFF
Copy CRC D829BCFF
Accurately ripped (confidence 3) [BBF704BC] (AR v1)
Copy OK
Track 7
Filename D:\07 - Jack Raggs.wav
Pre-gap length 0:00:02.45
Peak level 100.0 %
Extraction speed 36.2 X
Track quality 100.0 %
Test CRC B24085B4
Copy CRC B24085B4
Accurately ripped (confidence 3) [DE07146B] (AR v1)
Copy OK
Track 8
Filename D:\08 - Mambo With Moody.wav
Pre-gap length 0:00:02.68
Peak level 100.0 %
Extraction speed 33.2 X
Track quality 100.0 %
Test CRC 12D22653
Copy CRC 12D22653
Accurately ripped (confidence 3) [572A6085] (AR v1)
Copy OK
Track 9
Filename D:\09 - It Might As Well Be Spring (tk 1).wav
Pre-gap length 0:00:02.45
Peak level 84.8 %
Extraction speed 27.6 X
Track quality 100.0 %
Test CRC B5C45128
Copy CRC B5C45128
Accurately ripped (confidence 3) [3D1E8900] (AR v1)
Copy OK
Track 10
Filename D:\10 - It Might As Well Be Spring (tk 2).wav
Pre-gap length 0:00:01.63
Peak level 99.9 %
Extraction speed 32.7 X
Track quality 100.0 %
Test CRC 3EF0BFE3
Copy CRC 3EF0BFE3
Accurately ripped (confidence 3) [3F59C163] (AR v1)
Copy OK
Track 11
Filename D:\11 - Blues In The Closet.wav
Pre-gap length 0:00:02.52
Peak level 99.6 %
Extraction speed 20.6 X
Track quality 100.0 %
Test CRC E4F7398B
Copy CRC E4F7398B
Accurately ripped (confidence 3) [432994DB] (AR v1)
Copy OK
Track 12
Filename D:\12 - Moody's Mood For Blues.wav
Pre-gap length 0:00:02.52
Peak level 86.3 %
Extraction speed 23.6 X
Track quality 100.0 %
Test CRC 1AD82D6D
Copy CRC 1AD82D6D
Accurately ripped (confidence 3) [107C5743] (AR v1)
Copy OK
Track 13
Filename D:\13 - Nobody Knows The Trouble I've Seen.wav
Pre-gap length 0:00:02.57
Peak level 94.2 %
Extraction speed 17.6 X
Track quality 100.0 %
Test CRC F1087F17
Copy CRC F1087F17
Accurately ripped (confidence 3) [1826CDB2] (AR v1)
Copy OK
Track 14
Filename D:\14 - I Got The Blues.wav
Pre-gap length 0:00:02.13
Peak level 100.0 %
Extraction speed 33.6 X
Track quality 100.0 %
Test CRC F1C205DC
Copy CRC F1C205DC
Accurately ripped (confidence 3) [C1977FD8] (AR v1)
Copy OK
Track 15
Filename D:\15 - Blue Walk.wav
Pre-gap length 0:00:02.07
Peak level 96.6 %
Extraction speed 23.1 X
Track quality 100.0 %
Test CRC 5504131F
Copy CRC 5504131F
Accurately ripped (confidence 3) [99336A1F] (AR v1)
Copy OK
Track 16
Filename D:\16 - Faster James.wav
Pre-gap length 0:00:02.37
Peak level 100.0 %
Extraction speed 33.9 X
Track quality 100.0 %
Test CRC 4CA1F7A2
Copy CRC 4CA1F7A2
Accurately ripped (confidence 3) [D5D6F0EB] (AR v1)
Copy OK
All tracks accurately ripped
No errors occurred
End of status report
==== Log checksum F4C53102728B12672E186A5E948AC340D95FB5BF329BBA9AA615C47320F8BACB ====
 
Содержание индексной карты (.CUE)
REM DISCID D90D2010
REM COMMENT "ExactAudioCopy v1.0b3"
PERFORMER "James Moody"
TITLE "Moody's Mood For Blues"
FILE "01. I'm Gone.flac" WAVE
TRACK 01 AUDIO
TITLE "I'm Gone"
PERFORMER "James Moody"
INDEX 01 00:00:00
TRACK 02 AUDIO
TITLE "A Hundred Years From Today"
PERFORMER "James Moody"
INDEX 00 03:21:65
FILE "02. A Hundred Years From Today.flac" WAVE
INDEX 01 00:00:00
TRACK 03 AUDIO
TITLE "Keepin' Up With Jonesy"
PERFORMER "James Moody"
INDEX 00 02:47:00
FILE "03. Keepin' Up With Jonesy.flac" WAVE
INDEX 01 00:00:00
TRACK 04 AUDIO
TITLE "Workshop"
PERFORMER "James Moody"
INDEX 00 03:15:33
FILE "04. Workshop.flac" WAVE
INDEX 01 00:00:00
TRACK 05 AUDIO
TITLE "That Man O' Mine"
PERFORMER "James Moody"
INDEX 00 03:11:18
FILE "05. That Man O' Mine.flac" WAVE
INDEX 01 00:00:00
TRACK 06 AUDIO
TITLE "Over The Rainbow"
PERFORMER "James Moody"
INDEX 00 02:58:05
FILE "06. Over The Rainbow.flac" WAVE
INDEX 01 00:00:00
TRACK 07 AUDIO
TITLE "Jack Raggs"
PERFORMER "James Moody"
INDEX 00 03:04:53
FILE "07. Jack Raggs.flac" WAVE
INDEX 01 00:00:00
TRACK 08 AUDIO
TITLE "Mambo With Moody"
PERFORMER "James Moody"
INDEX 00 02:42:02
FILE "08. Mambo With Moody.flac" WAVE
INDEX 01 00:00:00
TRACK 09 AUDIO
TITLE "It Might As Well Be Spring (take 1)"
PERFORMER "James Moody"
INDEX 00 04:09:32
FILE "09. It Might As Well Be Spring (take 1).flac" WAVE
INDEX 01 00:00:00
TRACK 10 AUDIO
TITLE "It Might As Well Be Spring (take 2)"
PERFORMER "James Moody"
INDEX 00 03:54:50
FILE "10. It Might As Well Be Spring (take 2).flac" WAVE
INDEX 01 00:00:00
TRACK 11 AUDIO
TITLE "Blues In The Closet"
PERFORMER "James Moody"
INDEX 00 03:48:35
FILE "11. Blues In The Closet.flac" WAVE
INDEX 01 00:00:00
TRACK 12 AUDIO
TITLE "Moody's Mood For Blues"
PERFORMER "James Moody"
INDEX 00 03:55:48
FILE "12. Moody's Mood For Blues.flac" WAVE
INDEX 01 00:00:00
TRACK 13 AUDIO
TITLE "Nobody Knows The Trouble I've Seen"
PERFORMER "James Moody"
INDEX 00 05:38:03
FILE "13. Nobody Knows The Trouble I've Seen.flac" WAVE
INDEX 01 00:00:00
TRACK 14 AUDIO
TITLE "I Got The Blues"
PERFORMER "James Moody"
INDEX 00 02:49:50
FILE "14. I Got The Blues.flac" WAVE
INDEX 01 00:00:00
TRACK 15 AUDIO
TITLE "Blue Walk"
PERFORMER "James Moody"
INDEX 00 02:47:00
FILE "15. Blue Walk.flac" WAVE
INDEX 01 00:00:00
TRACK 16 AUDIO
TITLE "Faster James"
PERFORMER "James Moody"
INDEX 00 03:14:33
FILE "16. Faster James.flac" WAVE
INDEX 01 00:00:00
Any questions - support@pro-jazz.com.
Есть вопросы - support@pro-jazz.com
20:19
191
Нет комментариев. Ваш будет первым!