Вы используете незарегистрированную версию компонента "Вкладки"!

Поиск

(Post-Bop,Hard Bop), John Coltrane - A Love Supreme - 1964, Japan 24-bit remastered - 2007, WavPack (image + .cue), lossless

Треклист:
John Coltrane - A Love Supreme Жанр: Post-Bop,Hard Bop
Год выпуска альбома: 1964
Год выпуска диска: 2007
Производитель диска: Impulse!
Аудио кодек: WavPack
Тип рипа: image + .cue
Битрейт аудио: lossless
Продолжительность: 32:59
Источник : сеть
Трэклист:
Part 1: "Acknowledgement" – 7:47
Part 2: "Resolution" – 7:22
Part 3: "Pursuance/Part 4: "Psalm" - 17:53
 
Доп. информация
Easily one of the most important records ever made, John Coltrane's A Love Supreme was his pinnacle studio outing that at once compiled all of his innovations from his past, spoke of his current deep spirituality, and also gave a glimpse into the next two and a half years (sadly, those would be his last). Recorded at the end of 1964, Trane's classic quartet of Elvin Jones, McCoy Tyner, and Jimmy Garrison stepped into the studio and created one of the most thought-provoking, concise, and technically pleasing albums of their bountiful relationship (not to mention his best-selling to date). From the undulatory (and classic) bassline at the intro to the last breathy notes, Trane is at the peak of his logical yet emotionally varied soloing while the rest of the group is remarkably in tune with Coltrane's spiritual vibe. Composed of four parts, each has a thematic progression leading to an understanding of spirituality through meditation. From the beginning, "Acknowledgement" is the awakening of sorts that trails off to the famous chanting of the theme at the end, which yields to the second act, "Resolution," an amazingly beautiful piece about the fury of dedication to a new path of understanding. "Persuance" is a search for that understanding, and "Psalm" is the enlightenment. Although he is at times aggressive and atonal, this isn't Trane at his most adventurous (pretty much everything recorded from here on out progressively becomes much more free, and live recordings from this period are extremely spirited), but it certainly is his best attempt at the realization of concept -- as the spiritual journey is made amazingly clear. A Love Supreme clocks in at just over 30 minutes, but if it had been any longer it could have turned into a laborious listen. As it stands, just enough is conveyed. It is almost impossible to imagine a world without A Love Supreme having been made, and it is equally impossible to imagine any jazz collection without it.
 
ЕАС
Exact Audio Copy V0.99 prebeta 3 from 28. July 2007
EAC extraction logfile from 2. March 2008, 2:14
John Coltrane / A Love Supreme [SHM-CD]
Used drive : PLEXTOR CD-R PX-W5224A Adapter: 1 ID: 1
Read mode : Secure
Utilize accurate stream : Yes
Defeat audio cache : Yes
Make use of C2 pointers : No
Read offset correction : 30
Overread into Lead-In and Lead-Out : No
Fill up missing offset samples with silence : Yes
Delete leading and trailing silent blocks : No
Null samples used in CRC calculations : Yes
Used interface : Installed external ASPI interface
Used output format : Internal WAV Routines
Sample format : 44.100 Hz; 16 Bit; Stereo
TOC of the extracted CD
Track | Start | Length | Start sector | End sector
---------------------------------------------------------
1 | 0:00.00 | 7:47.17 | 0 | 35041
2 | 7:47.17 | 7:25.55 | 35042 | 68471
3 | 15:12.72 | 17:50.43 | 68472 | 148764
Range status and errors
Selected range
Filename Z:\John Coltrane - A Love Supreme [SHM-CD Japan]\John Coltrane - A Love Supreme.wav
Peak level 100.0 %
Range quality 100.0 %
Test CRC 227985C5
Copy CRC 227985C5
Copy OK
No errors occurred
AccurateRip summary
Track 1 not present in database
Track 2 not present in database
Track 3 not present in database
None of the tracks are present in the AccurateRip database
End of status report
 
Audiochecker
AUDIOCHECKER v2.0 beta (build 457) - by Dester - opdester@freemail.hu
~~~~~~~~~~~~~~~~~~~~~~~~~~~~~~~~~~
Started at: ñóááîòà, 27. 06. 2009. - 0:16.03
3 files found
1 -===- T:\John Coltrane\1964 - A Love Supreme [SHM-CD]\01 - John Coltrane - Part 1 _ Acknowledgement.wav
Conclusion: this track is CDDA with probability 100%
2 -===- T:\John Coltrane\1964 - A Love Supreme [SHM-CD]\02 - John Coltrane - Part 2 _ Resolution.wav
Conclusion: this track is CDDA with probability 100%
3 -===- T:\John Coltrane\1964 - A Love Supreme [SHM-CD]\03 - John Coltrane - Part 3 _ Pursuance_Part 4 - Psalm.wav
Conclusion: this track is CDDA with probability 100%
Finished at: ñóááîòà, 27. 06. 2009. - 0:18.04 (operation time: 0:02.01)
 
CUETools log
[CUETools log; Date: 22.05.2016 10:59:36; Version: 2.0.9]
[CTDB TOCID: _wcy77KAl9LbRAWdYFpwO_NMFnM-] found.
[ CTDBID ] Status
[ea99f7fe] (39/44) Accurately ripped
[579c8231] (01/44) NotFound
[669b4643] (01/44) NotFound
[ab459b34] (01/44) NotFound
[c9fd9ef0] (01/44) No match
[d2a1536f] (01/44) No match
[AccurateRip ID: 0003d977-000d48a1-2307bf03] found.
Track [ CRC ] Status
01 [dbcb13a8] (02/27) Accurately ripped
02 [b8ace26e] (02/27) Accurately ripped
03 [67ac5da6] (02/27) Accurately ripped
Offsetted by 180:
01 [1ebd6652] (03/27) Accurately ripped
02 [5bf30814] (03/27) Accurately ripped
03 [aedab88a] (03/27) Accurately ripped
Offsetted by 325:
01 [063fd5fa] (02/27) Accurately ripped
02 [cd9fa30c] (02/27) Accurately ripped
03 [6bf9b42d] (02/27) Accurately ripped
Offsetted by 1550:
01 [f1dd8ac2] (06/27) Accurately ripped
02 [c267c424] (06/27) Accurately ripped
03 [ec988433] (06/27) Accurately ripped
Offsetted by -73:
01 [5a54eebe] (03/27) No match but offset
02 [89698168] (03/27) No match but offset
03 [95f13d86] (03/27) No match but offset
Track Peak [ CRC32 ] [W/O NULL] [ LOG ]
-- 99,9 [227985C5] [4650B63A] CRC32
01 88,1 [CB07F9CD] [984EB58B]
02 99,9 [B2CB8193] [0CC810B7]
03 99,9 [E5BBC284] [12B2E71E]
Any questions -> support@pro-jazz.com. По всем вопросам пишите -> support@pro-jazz.com
12:19
207
Нет комментариев. Ваш будет первым!