Вы используете незарегистрированную версию компонента "Вкладки"!

Поиск

(Post-Bop, Hard Bop) Eric Dolphy - Music Matador (1963) - 1993, FLAC (tracks+.cue), lossless

(Post-Bop, Hard Bop) Eric Dolphy - Music Matador (1963) - 1993, FLAC (tracks+.cue), lossless
Треклист:
Eric Dolphy – Music Matador (1963)
Жанр: Post-Bop, Hard Bop
Год издания диска: 1993
Издатель (лейбл): Le Jazz
Номер по каталогу: CD 14
Аудиокодек: FLAC (*.flac)
Тип рипа: tracks+.cue
Битрейт аудио: lossless
Продолжительность: 48:12
Источник (релизер): What.cd (weareborg)
Наличие сканов в содержимом раздачи: да
Треклист:
01. Jitterbug Waltz (7:13)
02. Music Matador (9:29)
03. Alone Together (13:29)
04. Come Sunday (6:30)
05. Ode To C.P. (8:13)
06. Love Me (3:18)
Personnel:
Woody Shaw - tp
Eric Dolphy - as, fl, bcl
Clifford Jordan - ts, ss
Sonny Simmons - as
Prince Lasha - fl
Bobby Hutcherson - vib
Richard Davis, Eddie Kahn - b
J.C. Moses, Charles Moffet - d
 
 
Лог создания рипа
Exact Audio Copy V0.99 prebeta 4 from 23. January 2008
EAC extraction logfile from 19. August 2008, 0:45
Eric Dolphy / Music Matador
Used drive : HL-DT-STDVD-ROM GDR8164B Adapter: 0 ID: 0
Read mode : Secure
Utilize accurate stream : Yes
Defeat audio cache : Yes
Make use of C2 pointers : No
Read offset correction : 102
Overread into Lead-In and Lead-Out : No
Fill up missing offset samples with silence : Yes
Delete leading and trailing silent blocks : No
Null samples used in CRC calculations : Yes
Used interface : Native Win32 interface for Win NT & 2000
Gap handling : Appended to previous track
Used output format : User Defined Encoder
Selected bitrate : 128 kBit/s
Quality : High
Add ID3 tag : No
Command line compressor : C:\Archivos de programa\Exact Audio Copy\FLAC\FLAC.EXE
Additional command line options : -V -8 -T "artist=%a" -T "title=%t" -T "album=%g" -T "date=%y" -T "tracknumber=%n" -T "genre=%m" %s
TOC of the extracted CD
Track | Start | Length | Start sector | End sector
---------------------------------------------------------
1 | 0:00.33 | 7:13.32 | 33 | 32539
2 | 7:13.65 | 9:28.50 | 32540 | 75189
3 | 16:42.40 | 13:29.05 | 75190 | 135869
4 | 30:11.45 | 6:29.38 | 135870 | 165082
5 | 36:41.08 | 8:13.17 | 165083 | 202074
6 | 44:54.25 | 3:17.50 | 202075 | 216899
Track 1
Filename G:\00 Rips\Mъsica\Eric Dolphy - Music Matador\01 - Jitterbug Waltz.wav
Pre-gap length 0:00:02.44
Peak level 100.0 %
Track quality 100.0 %
Test CRC 510218EC
Copy CRC 510218EC
Track not present in AccurateRip database
Copy OK
Track 2
Filename G:\00 Rips\Mъsica\Eric Dolphy - Music Matador\02 - Music Matador.wav
Pre-gap length 0:00:02.56
Peak level 77.3 %
Track quality 100.0 %
Test CRC BC603471
Copy CRC BC603471
Track not present in AccurateRip database
Copy OK
Track 3
Filename G:\00 Rips\Mъsica\Eric Dolphy - Music Matador\03 - Alone Together.wav
Pre-gap length 0:00:02.52
Peak level 100.0 %
Track quality 100.0 %
Test CRC 53164305
Copy CRC 53164305
Track not present in AccurateRip database
Copy OK
Track 4
Filename G:\00 Rips\Mъsica\Eric Dolphy - Music Matador\04 - Come Sunday.wav
Pre-gap length 0:00:02.17
Peak level 68.9 %
Track quality 99.9 %
Test CRC 6096DE85
Copy CRC 6096DE85
Track not present in AccurateRip database
Copy OK
Track 5
Filename G:\00 Rips\Mъsica\Eric Dolphy - Music Matador\05 - Ode to C.P..wav
Pre-gap length 0:00:02.18
Peak level 70.7 %
Track quality 100.0 %
Test CRC 89FFA00D
Copy CRC 89FFA00D
Track not present in AccurateRip database
Copy OK
Track 6
Filename G:\00 Rips\Mъsica\Eric Dolphy - Music Matador\06 - Love Me.wav
Pre-gap length 0:00:02.34
Peak level 87.1 %
Track quality 100.0 %
Test CRC 53BDBBCD
Copy CRC 53BDBBCD
Track not present in AccurateRip database
Copy OK
None of the tracks are present in the AccurateRip database
No errors occurred
End of status report
 
Содержание индексной карты (.CUE)
REM GENRE Jazz
REM DATE 1993
REM DISCID 3E0B4C06
REM COMMENT "ExactAudioCopy v0.99pb4"
PERFORMER "Eric Dolphy"
TITLE "Music Matador"
FILE "01. Jitterbug Waltz.flac" WAVE
TRACK 01 AUDIO
TITLE "Jitterbug Waltz"
PERFORMER "Eric Dolphy"
PREGAP 00:00:33
INDEX 01 00:00:00
TRACK 02 AUDIO
TITLE "Music Matador"
PERFORMER "Eric Dolphy"
INDEX 00 07:10:65
FILE "02. Music Matador.flac" WAVE
INDEX 01 00:00:00
TRACK 03 AUDIO
TITLE "Alone Together"
PERFORMER "Eric Dolphy"
INDEX 00 09:26:11
FILE "03. Alone Together.flac" WAVE
INDEX 01 00:00:00
TRACK 04 AUDIO
TITLE "Come Sunday"
PERFORMER "Eric Dolphy"
INDEX 00 13:26:67
FILE "04. Come Sunday.flac" WAVE
INDEX 01 00:00:00
TRACK 05 AUDIO
TITLE "Ode To C.P."
PERFORMER "Eric Dolphy"
INDEX 00 06:27:24
FILE "05. Ode To C.P..flac" WAVE
INDEX 01 00:00:00
TRACK 06 AUDIO
TITLE "Love Me"
PERFORMER "Eric Dolphy"
INDEX 00 08:10:66
FILE "06. Love Me.flac" WAVE
INDEX 01 00:00:00
 
AccurateRip
[CUETools log; Date: 23.06.2013 0:06:52; Version: 2.0.9]
Pregap length 00:00:33.
[CTDB TOCID: hEG3YoD9k6G16_R0nBWOMTpix3E-] disk not present in database.
[AccurateRip ID: 000ca12b-0042fdb8-3e0b4c06] found.
Track [ CRC ] Status
01 [0ddf5c2d] (3/3) Accurately ripped
02 [7a234dd5] (3/3) Accurately ripped
03 [6cefea32] (3/3) Accurately ripped
04 [95129f72] (3/3) Accurately ripped
05 [1abe7df3] (3/3) Accurately ripped
06 [b8b3f0d4] (3/3) Accurately ripped
Track Peak [ CRC32 ] [W/O NULL] [ LOG ]
-- 100,0 [585AD3C3] [9F13E3C7]
01 100,0 [510218EC] [C12FCF2F] CRC32
02 77,3 [BC603471] [BF695A64] CRC32
03 100,0 [53164305] [8A20D3A6] CRC32
04 68,9 [6096DE85] [C76E543A] CRC32
05 70,7 [89FFA00D] [15C93AB5] CRC32
06 87,1 [53BDBBCD] [58C563EC] CRC32
По всем вопросам пишите личное сообщение пользователю M0p94ok.
15:25
178
Нет комментариев. Ваш будет первым!