Поиск

(Post-Bop, Hard Bop) [CD] Rahsaan Roland Kirk - Dog Years in the Fourth Ring (1963-1975) (3CD) - 1997, FLAC (tracks+.cue), lossless

(Post-Bop, Hard Bop) [CD] Rahsaan Roland Kirk - Dog Years in the Fourth Ring (1963-1975) (3CD) - 1997, FLAC (tracks+.cue), lossless
Треклист:
Rahsaan Roland Kirk - Dog Years in the Fourth Ring
Жанр: Post-Bop, Hard Bop
Носитель: CD
Страна-производитель диска: США
Год издания: 1997
Издатель (лейбл): 32 Jazz
Номер по каталогу: 32032
Аудиокодек: FLAC (*.flac)
Тип рипа: tracks+.cue
Битрейт аудио: lossless
Продолжительность: 2:13:13
Источник (релизер): uglymouse (what)
Наличие сканов в содержимом раздачи: да
 
CD1 {49:37} - Dog Years in the Fourth Ring: Disc 1
01. Box Tops and Whistlin' Rings (0:20)
02. Domino (5:03)
03. Blues for Alice (6:19)
04. I Remember Clifford (3:37)
05. Freddie Freeloader (5:32)
06. Lester Leaps In (5:03)
07. Sister Sadie (6:02)
08. One Mind/Seasons (4:42)
09. I Say a Little Prayer (12:59)
 
Лог создания рипа
Exact Audio Copy V1.0 beta 3 from 29. August 2011
EAC extraction logfile from 18. July 2014, 16:01
Rahsaan Roland Kirk / Disc 1: Dog Years In the Fourth Ring
Used drive : ASUS DRW-24B1ST i Adapter: 2 ID: 0
Read mode : Secure
Utilize accurate stream : Yes
Defeat audio cache : Yes
Make use of C2 pointers : No
Read offset correction : 6
Overread into Lead-In and Lead-Out : No
Fill up missing offset samples with silence : Yes
Delete leading and trailing silent blocks : No
Null samples used in CRC calculations : Yes
Used interface : Native Win32 interface for Win NT & 2000
Gap handling : Appended to previous track
Used output format : User Defined Encoder
Selected bitrate : 1024 kBit/s
Quality : High
Add ID3 tag : No
Command line compressor : C:\Program Files (x86)\Exact Audio Copy\FLAC\FLAC.EXE
Additional command line options : -8 -V -T "ARTIST=%artist%" -T "TITLE=%title%" -T "ALBUM=%albumtitle%" -T "DATE=%year%" -T "TRACKNUMBER=%tracknr%" -T "GENRE=%genre%" -T "PERFORMER=%albuminterpret%" -T "COMPOSER=%composer%" %haslyrics%--tag-from-file=LYRICS="%lyricsfile%"%haslyrics% -T "ALBUMARTIST=%albumartist%" -T "DISCNUMBER=%cdnumber%" -T "TOTALDISCS=%totalcds%" -T "TOTALTRACKS=%numtracks%" -T "COMMENT=%comment%" %source% -o %dest%
TOC of the extracted CD
Track | Start | Length | Start sector | End sector
---------------------------------------------------------
1 | 0:00.00 | 0:19.67 | 0 | 1491
2 | 0:19.67 | 5:02.60 | 1492 | 24201
3 | 5:22.52 | 6:18.68 | 24202 | 52619
4 | 11:41.45 | 3:37.27 | 52620 | 68921
5 | 15:18.72 | 5:31.48 | 68922 | 93794
6 | 20:50.45 | 5:02.45 | 93795 | 116489
7 | 25:53.15 | 6:02.35 | 116490 | 143674
8 | 31:55.50 | 4:42.22 | 143675 | 164846
9 | 36:37.72 | 12:58.70 | 164847 | 223266
Track 1
Filename G:\EAC Rips\Rahsaan Roland Kirk - Dog Years in the Fourth Ring\01 Dog Years in the Fourth Ring Disc 1\01 - Box Tops and Whistlin' Rings.wav
Pre-gap length 0:00:02.00
Peak level 50.0 %
Extraction speed 1.0 X
Track quality 99.4 %
Test CRC 9C8D8244
Copy CRC 9C8D8244
Accurately ripped (confidence 10) [8E5D27B1] (AR v2)
Copy OK
Track 2
Filename G:\EAC Rips\Rahsaan Roland Kirk - Dog Years in the Fourth Ring\01 Dog Years in the Fourth Ring Disc 1\02 - Domino.wav
Peak level 99.9 %
Extraction speed 4.8 X
Track quality 99.9 %
Test CRC E5E2EAE9
Copy CRC E5E2EAE9
Accurately ripped (confidence 10) [E75B1D4C] (AR v2)
Copy OK
Track 3
Filename G:\EAC Rips\Rahsaan Roland Kirk - Dog Years in the Fourth Ring\01 Dog Years in the Fourth Ring Disc 1\03 - Blues for Alice.wav
Peak level 99.9 %
Extraction speed 6.4 X
Track quality 100.0 %
Test CRC F3E93C61
Copy CRC F3E93C61
Accurately ripped (confidence 10) [2C9CDFDA] (AR v2)
Copy OK
Track 4
Filename G:\EAC Rips\Rahsaan Roland Kirk - Dog Years in the Fourth Ring\01 Dog Years in the Fourth Ring Disc 1\04 - I Remember Clifford.wav
Peak level 99.9 %
Extraction speed 6.6 X
Track quality 100.0 %
Test CRC 1BAD7858
Copy CRC 1BAD7858
Accurately ripped (confidence 10) [BE1E3580] (AR v2)
Copy OK
Track 5
Filename G:\EAC Rips\Rahsaan Roland Kirk - Dog Years in the Fourth Ring\01 Dog Years in the Fourth Ring Disc 1\05 - Freddie Freeloader.wav
Peak level 99.9 %
Extraction speed 6.6 X
Track quality 99.9 %
Test CRC FF1F1A8F
Copy CRC FF1F1A8F
Accurately ripped (confidence 10) [3303881B] (AR v2)
Copy OK
Track 6
Filename G:\EAC Rips\Rahsaan Roland Kirk - Dog Years in the Fourth Ring\01 Dog Years in the Fourth Ring Disc 1\06 - Lester Leaps In.wav
Peak level 100.0 %
Extraction speed 8.0 X
Track quality 100.0 %
Test CRC C2178021
Copy CRC C2178021
Accurately ripped (confidence 10) [9E91E3A1] (AR v2)
Copy OK
Track 7
Filename G:\EAC Rips\Rahsaan Roland Kirk - Dog Years in the Fourth Ring\01 Dog Years in the Fourth Ring Disc 1\07 - Sister Sadie.wav
Pre-gap length 0:00:01.10
Peak level 99.9 %
Extraction speed 8.6 X
Track quality 100.0 %
Test CRC DF768489
Copy CRC DF768489
Accurately ripped (confidence 10) [C437A9D5] (AR v2)
Copy OK
Track 8
Filename G:\EAC Rips\Rahsaan Roland Kirk - Dog Years in the Fourth Ring\01 Dog Years in the Fourth Ring Disc 1\08 - One Mind,Seasons.wav
Peak level 99.9 %
Extraction speed 8.8 X
Track quality 100.0 %
Test CRC 43040F4E
Copy CRC 43040F4E
Accurately ripped (confidence 10) [530C0D5F] (AR v2)
Copy OK
Track 9
Filename G:\EAC Rips\Rahsaan Roland Kirk - Dog Years in the Fourth Ring\01 Dog Years in the Fourth Ring Disc 1\09 - I Say a Little Prayer.wav
Peak level 99.9 %
Extraction speed 10.2 X
Track quality 100.0 %
Test CRC 49D7C83E
Copy CRC 49D7C83E
Accurately ripped (confidence 10) [1947A28F] (AR v2)
Copy OK
All tracks accurately ripped
No errors occurred
End of status report
==== Log checksum 012D4A6A080D28FDB204AB9FE8D80C911CFD13269D90D24DA9AB42FB757E07D2 ====
 
Содержание индексной карты (.CUE)
REM GENRE Jazz
REM DATE 1997
REM DISCID 640BA009
REM COMMENT "ExactAudioCopy v1.0b3"
PERFORMER "Rahsaan Roland Kirk"
TITLE "Dog Years in the Fourth Ring CD1"
FILE "01 - Box Tops and Whistlin' Rings.wav" WAVE
TRACK 01 AUDIO
TITLE "Box Tops and Whistlin' Rings"
PERFORMER "Rahsaan Roland Kirk"
INDEX 01 00:00:00
FILE "02 - Domino.wav" WAVE
TRACK 02 AUDIO
TITLE "Domino"
PERFORMER "Rahsaan Roland Kirk"
INDEX 01 00:00:00
FILE "03 - Blues for Alice.wav" WAVE
TRACK 03 AUDIO
TITLE "Blues for Alice"
PERFORMER "Rahsaan Roland Kirk"
INDEX 01 00:00:00
FILE "04 - I Remember Clifford.wav" WAVE
TRACK 04 AUDIO
TITLE "I Remember Clifford"
PERFORMER "Rahsaan Roland Kirk"
INDEX 01 00:00:00
FILE "05 - Freddie Freeloader.wav" WAVE
TRACK 05 AUDIO
TITLE "Freddie Freeloader"
PERFORMER "Rahsaan Roland Kirk"
INDEX 01 00:00:00
FILE "06 - Lester Leaps In.wav" WAVE
TRACK 06 AUDIO
TITLE "Lester Leaps In"
PERFORMER "Rahsaan Roland Kirk"
INDEX 01 00:00:00
TRACK 07 AUDIO
TITLE "Sister Sadie"
PERFORMER "Rahsaan Roland Kirk"
INDEX 00 05:01:37
FILE "07 - Sister Sadie.wav" WAVE
INDEX 01 00:00:00
FILE "08 - One Mind-Seasons.wav" WAVE
TRACK 08 AUDIO
TITLE "One Mind/Seasons"
PERFORMER "Rahsaan Roland Kirk"
INDEX 01 00:00:00
FILE "09 - I Say a Little Prayer.wav" WAVE
TRACK 09 AUDIO
TITLE "I Say a Little Prayer"
PERFORMER "Rahsaan Roland Kirk"
INDEX 01 00:00:00
 
Отчет CUETools
[CUETools log; Date: 20.07.2014 20:41:21; Version: 2.1.4]
[CTDB TOCID: aTJNpMZNkHzxXhJJuxC6n5GR8hY-] found.
Track | CTDB Status
1 | (5/5) Accurately ripped
2 | (5/5) Accurately ripped
3 | (5/5) Accurately ripped
4 | (5/5) Accurately ripped
5 | (5/5) Accurately ripped
6 | (5/5) Accurately ripped
7 | (5/5) Accurately ripped
8 | (5/5) Accurately ripped
9 | (5/5) Accurately ripped
[AccurateRip ID: 000d91de-0068e5ce-640ba009] found.
Track [ CRC | V2 ] Status
01 [0ba31a75|8e5d27b1] (17+10/27) Accurately ripped
02 [b1e8833b|e75b1d4c] (18+10/28) Accurately ripped
03 [1a0e5d40|2c9cdfda] (17+10/27) Accurately ripped
04 [8cf76e63|be1e3580] (18+10/28) Accurately ripped
05 [6fc7e259|3303881b] (18+10/28) Accurately ripped
06 [eda14291|9e91e3a1] (18+10/28) Accurately ripped
07 [2db746e3|c437a9d5] (18+10/28) Accurately ripped
08 [bb77e334|530c0d5f] (18+10/28) Accurately ripped
09 [8a850c64|1947a28f] (17+10/27) Accurately ripped
Track Peak [ CRC32 ] [W/O NULL] [ LOG ]
-- 99,9 [CF768A69] [61302605]
01 50,0 [9C8D8244] [ADB572C5] CRC32
02 99,9 [E5E2EAE9] [F6923ECD] CRC32
03 99,9 [F3E93C61] [EFAADFBC] CRC32
04 99,9 [1BAD7858] [E12A7A0D] CRC32
05 99,9 [FF1F1A8F] [FC915F07] CRC32
06 99,9 [C2178021] [BBBA82B9] CRC32
07 99,9 [DF768489] [01986FBF] CRC32
08 99,9 [43040F4E] [3FC80A5A] CRC32
09 99,9 [49D7C83E] [01BBA152] CRC32
 
CD2 {45:49} - Dog Years in the Fourth Ring: Disc 2
01. Jammin' with a Wolf (0:26)
02. Three for the Festival (excerpt) (3:52)
03. Untitled Blues (7:23)
04. Passion Dance (8:10)
05. Petite Fleur (Little Flower) (7:34)
06. Giant Steps (4:13)
07. Misterioso/Blue Monk (excerpt) (1:04)
08. Rahsaantalk (0:25)
09. Multi-Horn Medley: Satin Doll/Lover (6:20)
10. Blacknuss (6:22)
 
Лог создания рипа
Exact Audio Copy V1.0 beta 3 from 29. August 2011
EAC extraction logfile from 18. July 2014, 16:19
Rahsaan Roland Kirk / Disc 2: Dog Years in the Fourth Ring
Used drive : ASUS DRW-24B1ST i Adapter: 2 ID: 0
Read mode : Secure
Utilize accurate stream : Yes
Defeat audio cache : Yes
Make use of C2 pointers : No
Read offset correction : 6
Overread into Lead-In and Lead-Out : No
Fill up missing offset samples with silence : Yes
Delete leading and trailing silent blocks : No
Null samples used in CRC calculations : Yes
Used interface : Native Win32 interface for Win NT & 2000
Gap handling : Appended to previous track
Used output format : User Defined Encoder
Selected bitrate : 1024 kBit/s
Quality : High
Add ID3 tag : No
Command line compressor : C:\Program Files (x86)\Exact Audio Copy\FLAC\FLAC.EXE
Additional command line options : -8 -V -T "ARTIST=%artist%" -T "TITLE=%title%" -T "ALBUM=%albumtitle%" -T "DATE=%year%" -T "TRACKNUMBER=%tracknr%" -T "GENRE=%genre%" -T "PERFORMER=%albuminterpret%" -T "COMPOSER=%composer%" %haslyrics%--tag-from-file=LYRICS="%lyricsfile%"%haslyrics% -T "ALBUMARTIST=%albumartist%" -T "DISCNUMBER=%cdnumber%" -T "TOTALDISCS=%totalcds%" -T "TOTALTRACKS=%numtracks%" -T "COMMENT=%comment%" %source% -o %dest%
TOC of the extracted CD
Track | Start | Length | Start sector | End sector
---------------------------------------------------------
1 | 0:00.00 | 0:25.70 | 0 | 1944
2 | 0:25.70 | 3:51.50 | 1945 | 19319
3 | 4:17.45 | 7:23.17 | 19320 | 52561
4 | 11:40.62 | 8:09.38 | 52562 | 89274
5 | 19:50.25 | 7:34.20 | 89275 | 123344
6 | 27:24.45 | 4:13.22 | 123345 | 142341
7 | 31:37.67 | 1:03.60 | 142342 | 147126
8 | 32:41.52 | 0:25.10 | 147127 | 149011
9 | 33:06.62 | 6:19.53 | 149012 | 177489
10 | 39:26.40 | 6:22.25 | 177490 | 206164
Track 1
Filename G:\EAC Rips\Rahsaan Roland Kirk - Dog Years in the Fourth Ring\02 Dog Years in the Fourth Ring Disc 2\01 - Jammin' With a Wolf.wav
Pre-gap length 0:00:02.00
Peak level 43.5 %
Extraction speed 2.3 X
Track quality 100.0 %
Test CRC 3AA5E874
Copy CRC 3AA5E874
Accurately ripped (confidence 10) [3F3AF968] (AR v2)
Copy OK
Track 2
Filename G:\EAC Rips\Rahsaan Roland Kirk - Dog Years in the Fourth Ring\02 Dog Years in the Fourth Ring Disc 2\02 - Three for the Festival (excerpt).wav
Peak level 99.9 %
Extraction speed 5.3 X
Track quality 100.0 %
Test CRC F8DEE662
Copy CRC F8DEE662
Accurately ripped (confidence 10) [3E622E05] (AR v2)
Copy OK
Track 3
Filename G:\EAC Rips\Rahsaan Roland Kirk - Dog Years in the Fourth Ring\02 Dog Years in the Fourth Ring Disc 2\03 - Untitled Blues.wav
Peak level 88.1 %
Extraction speed 5.9 X
Track quality 99.9 %
Test CRC 2CB6EA0A
Copy CRC 2CB6EA0A
Accurately ripped (confidence 10) [1BD2A75D] (AR v2)
Copy OK
Track 4
Filename G:\EAC Rips\Rahsaan Roland Kirk - Dog Years in the Fourth Ring\02 Dog Years in the Fourth Ring Disc 2\04 - Passion Dance.wav
Peak level 99.9 %
Extraction speed 7.5 X
Track quality 100.0 %
Test CRC DEEA0B40
Copy CRC DEEA0B40
Accurately ripped (confidence 9) [BC93DDC2] (AR v2)
Copy OK
Track 5
Filename G:\EAC Rips\Rahsaan Roland Kirk - Dog Years in the Fourth Ring\02 Dog Years in the Fourth Ring Disc 2\05 - Petite Fleur (Little Flower).wav
Peak level 99.9 %
Extraction speed 8.3 X
Track quality 100.0 %
Test CRC 5D676002
Copy CRC 5D676002
Accurately ripped (confidence 8) [8E2EA0B0] (AR v2)
Copy OK
Track 6
Filename G:\EAC Rips\Rahsaan Roland Kirk - Dog Years in the Fourth Ring\02 Dog Years in the Fourth Ring Disc 2\06 - Giant Steps.wav
Peak level 94.5 %
Extraction speed 7.1 X
Track quality 99.9 %
Test CRC A6D43901
Copy CRC A6D43901
Accurately ripped (confidence 10) [832B009C] (AR v2)
Copy OK
Track 7
Filename G:\EAC Rips\Rahsaan Roland Kirk - Dog Years in the Fourth Ring\02 Dog Years in the Fourth Ring Disc 2\07 - Misterioso,Blue Monk (excerpt).wav
Peak level 99.9 %
Extraction speed 6.4 X
Track quality 100.0 %
Test CRC 406EC079
Copy CRC 406EC079
Accurately ripped (confidence 10) [123F54CC] (AR v2)
Copy OK
Track 8
Filename G:\EAC Rips\Rahsaan Roland Kirk - Dog Years in the Fourth Ring\02 Dog Years in the Fourth Ring Disc 2\08 - Rahsaantalk.wav
Peak level 65.1 %
Extraction speed 4.0 X
Track quality 100.0 %
Test CRC 596A2272
Copy CRC 596A2272
Accurately ripped (confidence 10) [EF87DD2C] (AR v2)
Copy OK
Track 9
Filename G:\EAC Rips\Rahsaan Roland Kirk - Dog Years in the Fourth Ring\02 Dog Years in the Fourth Ring Disc 2\09 - Multi-Horn Medley- Satin Doll,Lover.wav
Peak level 99.9 %
Extraction speed 9.5 X
Track quality 100.0 %
Test CRC 2B5E7786
Copy CRC 2B5E7786
Accurately ripped (confidence 10) [DE81E6BC] (AR v2)
Copy OK
Track 10
Filename G:\EAC Rips\Rahsaan Roland Kirk - Dog Years in the Fourth Ring\02 Dog Years in the Fourth Ring Disc 2\10 - Blacknuss.wav
Peak level 99.7 %
Extraction speed 10.0 X
Track quality 100.0 %
Test CRC 934DC2AB
Copy CRC 934DC2AB
Accurately ripped (confidence 10) [0554342D] (AR v2)
Copy OK
All tracks accurately ripped
No errors occurred
End of status report
==== Log checksum ABF09738DADA4B120C1972EDBE9AEC5C8C1DFD620B81EE5713BF319DDB27DBF1 ====
 
Содержание индексной карты (.CUE)
REM GENRE Jazz
REM DATE 1997
REM DISCID 9D0ABC0A
REM COMMENT "ExactAudioCopy v1.0b3"
PERFORMER "Rahsaan Roland Kirk"
TITLE "Dog Years in the Fourth Ring CD2"
FILE "01 - Jammin' with a Wolf.wav" WAVE
TRACK 01 AUDIO
TITLE "Jammin' with a Wolf"
PERFORMER "Rahsaan Roland Kirk"
INDEX 01 00:00:00
FILE "02 - Three for the Festival (excerpt).wav" WAVE
TRACK 02 AUDIO
TITLE "Three for the Festival (excerpt)"
PERFORMER "Rahsaan Roland Kirk"
INDEX 01 00:00:00
FILE "03 - Untitled Blues.wav" WAVE
TRACK 03 AUDIO
TITLE "Untitled Blues"
PERFORMER "Rahsaan Roland Kirk"
INDEX 01 00:00:00
FILE "04 - Passion Dance.wav" WAVE
TRACK 04 AUDIO
TITLE "Passion Dance"
PERFORMER "Rahsaan Roland Kirk"
INDEX 01 00:00:00
FILE "05 - Petite Fleur (Little Flower).wav" WAVE
TRACK 05 AUDIO
TITLE "Petite Fleur (Little Flower)"
PERFORMER "Rahsaan Roland Kirk"
INDEX 01 00:00:00
FILE "06 - Giant Steps.wav" WAVE
TRACK 06 AUDIO
TITLE "Giant Steps"
PERFORMER "Rahsaan Roland Kirk"
INDEX 01 00:00:00
FILE "07 - Misterioso-Blue Monk (excerpt).wav" WAVE
TRACK 07 AUDIO
TITLE "Misterioso/Blue Monk (excerpt)"
PERFORMER "Rahsaan Roland Kirk"
INDEX 01 00:00:00
FILE "08 - Rahsaantalk.wav" WAVE
TRACK 08 AUDIO
TITLE "Rahsaantalk"
PERFORMER "Rahsaan Roland Kirk"
INDEX 01 00:00:00
FILE "09 - Multi-Horn Medley- Satin Doll-Lover.wav" WAVE
TRACK 09 AUDIO
TITLE "Multi-Horn Medley: Satin Doll/Lover"
PERFORMER "Rahsaan Roland Kirk"
INDEX 01 00:00:00
FILE "10 - Blacknuss.wav" WAVE
TRACK 10 AUDIO
TITLE "Blacknuss"
PERFORMER "Rahsaan Roland Kirk"
INDEX 01 00:00:00
 
Отчет CUETools
[CUETools log; Date: 20.07.2014 20:41:33; Version: 2.1.4]
[CTDB TOCID: 7iJx8LHw8CY97Or03jGA4_thgrU-] found.
Track | CTDB Status
1 | (6/6) Accurately ripped
2 | (6/6) Accurately ripped
3 | (6/6) Accurately ripped
4 | (5/6) Accurately ripped
5 | (4/6) Accurately ripped
6 | (5/6) Accurately ripped
7 | (5/6) Accurately ripped
8 | (6/6) Accurately ripped
9 | (6/6) Accurately ripped
10 | (6/6) Accurately ripped
[AccurateRip ID: 0010ea67-008991e1-9d0abc0a] found.
Track [ CRC | V2 ] Status
01 [c388ccf4|3f3af968] (17+10/27) Accurately ripped
02 [234fd6df|3e622e05] (17+10/27) Accurately ripped
03 [da795318|1bd2a75d] (17+10/27) Accurately ripped
04 [7e819637|bc93ddc2] (17+09/26) Accurately ripped
05 [1b15137b|8e2ea0b0] (17+08/25) Accurately ripped
06 [0d8662c0|832b009c] (17+10/27) Accurately ripped
07 [b7fbb603|123f54cc] (17+10/27) Accurately ripped
08 [3d8f4400|ef87dd2c] (17+10/27) Accurately ripped
09 [306a1f47|de81e6bc] (17+10/27) Accurately ripped
10 [bbaecdc3|0554342d] (17+10/27) Accurately ripped
Track Peak [ CRC32 ] [W/O NULL] [ LOG ]
-- 99,9 [60FD87F6] [E6872892]
01 43,5 [3AA5E874] [F7905D43] CRC32
02 99,9 [F8DEE662] [EF7AA9F0] CRC32
03 88,1 [2CB6EA0A] [1B1F1FFD] CRC32
04 99,9 [DEEA0B40] [B94B1B8E] CRC32
05 99,9 [5D676002] [A7F6DC21] CRC32
06 94,5 [A6D43901] [C550E8C1] CRC32
07 99,9 [406EC079] [AEF852B4] CRC32
08 65,1 [596A2272] [8011951F] CRC32
09 99,9 [2B5E7786] [3A5453B2] CRC32
10 99,7 [934DC2AB] [D232CA17] CRC32
 
CD3 {37:48} - Disc 3: Natural Black Inventions: Root Strata
01. Something for Trane That Trane Could Have Said (3:10)
02. Island Cry (3:54)
03. Runnin' from the Trash (2:16)
04. Day Dream (3:41)
05. The Ragman and the Junkman They Ran from the Businessman They Laughed and He Cried (3:03)
06. Breath-A-Thon (1:56)
07. Rahsaanica (3:46)
08. Raped Voices (1:52)
09. Haunted Feelings (2:26)
10. Prelude Back Home (3:45)
11. Dance of the Lobes (2:07)
12. Harder & Harder Spiritual (2:35)
13. Black Root (3:17)
 
Лог создания рипа
Exact Audio Copy V1.0 beta 3 from 29. August 2011
EAC extraction logfile from 18. July 2014, 15:40
Rahsaan Roland Kirk / Disc 3: Natural Black Inventions: Root Strata
Used drive : ASUS DRW-24B1ST i Adapter: 2 ID: 0
Read mode : Secure
Utilize accurate stream : Yes
Defeat audio cache : Yes
Make use of C2 pointers : No
Read offset correction : 6
Overread into Lead-In and Lead-Out : No
Fill up missing offset samples with silence : Yes
Delete leading and trailing silent blocks : No
Null samples used in CRC calculations : Yes
Used interface : Native Win32 interface for Win NT & 2000
Gap handling : Appended to previous track
Used output format : User Defined Encoder
Selected bitrate : 1024 kBit/s
Quality : High
Add ID3 tag : No
Command line compressor : C:\Program Files (x86)\Exact Audio Copy\FLAC\FLAC.EXE
Additional command line options : -8 -V -T "ARTIST=%artist%" -T "TITLE=%title%" -T "ALBUM=%albumtitle%" -T "DATE=%year%" -T "TRACKNUMBER=%tracknr%" -T "GENRE=%genre%" -T "PERFORMER=%albuminterpret%" -T "COMPOSER=%composer%" %haslyrics%--tag-from-file=LYRICS="%lyricsfile%"%haslyrics% -T "ALBUMARTIST=%albumartist%" -T "DISCNUMBER=%cdnumber%" -T "TOTALDISCS=%totalcds%" -T "TOTALTRACKS=%numtracks%" -T "COMMENT=%comment%" %source% -o %dest%
TOC of the extracted CD
Track | Start | Length | Start sector | End sector
---------------------------------------------------------
1 | 0:00.12 | 3:09.48 | 12 | 14234
2 | 3:09.60 | 3:54.27 | 14235 | 31811
3 | 7:04.12 | 2:15.43 | 31812 | 41979
4 | 9:19.55 | 3:40.72 | 41980 | 58551
5 | 13:00.52 | 3:02.73 | 58552 | 72274
6 | 16:03.50 | 1:56.02 | 72275 | 80976
7 | 17:59.52 | 3:45.38 | 80977 | 97889
8 | 21:45.15 | 1:52.27 | 97890 | 106316
9 | 23:37.42 | 2:26.30 | 106317 | 117296
10 | 26:03.72 | 3:45.33 | 117297 | 134204
11 | 29:49.30 | 2:06.57 | 134205 | 143711
12 | 31:56.12 | 2:34.58 | 143712 | 155319
13 | 34:30.70 | 3:16.60 | 155320 | 170079
Track 1
Filename G:\EAC Rips\Rahsaan Roland Kirk - Dog Years in the Fourth Ring\03 Natural Black Inventions - Root Strata Disc 3\01 - Something For Trane That Trane Could Have Said.wav
Pre-gap length 0:00:02.16
Peak level 85.2 %
Extraction speed 5.0 X
Track quality 100.0 %
Test CRC A070CD49
Copy CRC A070CD49
Accurately ripped (confidence 9) [5237AEE4] (AR v2)
Copy OK
Track 2
Filename G:\EAC Rips\Rahsaan Roland Kirk - Dog Years in the Fourth Ring\03 Natural Black Inventions - Root Strata Disc 3\02 - Island Cry.wav
Pre-gap length 0:00:02.73
Peak level 95.4 %
Extraction speed 4.7 X
Track quality 99.9 %
Test CRC F51B9324
Copy CRC F51B9324
Accurately ripped (confidence 9) [80D0055D] (AR v2)
Copy OK
Track 3
Filename G:\EAC Rips\Rahsaan Roland Kirk - Dog Years in the Fourth Ring\03 Natural Black Inventions - Root Strata Disc 3\03 - Runnin' From The Trash.wav
Pre-gap length 0:00:01.94
Peak level 73.5 %
Extraction speed 5.5 X
Track quality 100.0 %
Test CRC 71DF058A
Copy CRC 71DF058A
Accurately ripped (confidence 9) [7BC7A951] (AR v2)
Copy OK
Track 4
Filename G:\EAC Rips\Rahsaan Roland Kirk - Dog Years in the Fourth Ring\03 Natural Black Inventions - Root Strata Disc 3\04 - Day Dream.wav
Pre-gap length 0:00:02.13
Peak level 94.3 %
Extraction speed 6.3 X
Track quality 100.0 %
Test CRC 29B2A58F
Copy CRC 29B2A58F
Accurately ripped (confidence 9) [75203D55] (AR v2)
Copy OK
Track 5
Filename G:\EAC Rips\Rahsaan Roland Kirk - Dog Years in the Fourth Ring\03 Natural Black Inventions - Root Strata Disc 3\05 - The Ragman And The Junkman Ran From The Businessman They Laughed And He Cried.wav
Pre-gap length 0:00:02.36
Peak level 90.4 %
Extraction speed 6.5 X
Track quality 100.0 %
Test CRC 80C30CDD
Copy CRC 80C30CDD
Accurately ripped (confidence 9) [13862171] (AR v2)
Copy OK
Track 6
Filename G:\EAC Rips\Rahsaan Roland Kirk - Dog Years in the Fourth Ring\03 Natural Black Inventions - Root Strata Disc 3\06 - Breath-A-Thon.wav
Pre-gap length 0:00:01.24
Peak level 97.2 %
Extraction speed 6.1 X
Track quality 100.0 %
Test CRC 28B6933A
Copy CRC 28B6933A
Accurately ripped (confidence 9) [A917C213] (AR v2)
Copy OK
Track 7
Filename G:\EAC Rips\Rahsaan Roland Kirk - Dog Years in the Fourth Ring\03 Natural Black Inventions - Root Strata Disc 3\07 - Rahsaanica.wav
Pre-gap length 0:00:01.26
Peak level 89.4 %
Extraction speed 7.3 X
Track quality 100.0 %
Test CRC 97D5B0D5
Copy CRC 97D5B0D5
Accurately ripped (confidence 9) [731FCE1B] (AR v2)
Copy OK
Track 8
Filename G:\EAC Rips\Rahsaan Roland Kirk - Dog Years in the Fourth Ring\03 Natural Black Inventions - Root Strata Disc 3\08 - Raped Voices.wav
Pre-gap length 0:00:02.24
Peak level 98.9 %
Extraction speed 6.6 X
Track quality 100.0 %
Test CRC 30AB231A
Copy CRC 30AB231A
Accurately ripped (confidence 9) [4EA0E4F9] (AR v2)
Copy OK
Track 9
Filename G:\EAC Rips\Rahsaan Roland Kirk - Dog Years in the Fourth Ring\03 Natural Black Inventions - Root Strata Disc 3\09 - Haunted Feelings.wav
Pre-gap length 0:00:01.33
Peak level 85.9 %
Extraction speed 5.5 X
Track quality 99.9 %
Test CRC 8BE693DF
Copy CRC 8BE693DF
Accurately ripped (confidence 9) [CB36188D] (AR v2)
Copy OK
Track 10
Filename G:\EAC Rips\Rahsaan Roland Kirk - Dog Years in the Fourth Ring\03 Natural Black Inventions - Root Strata Disc 3\10 - Prelude Back Home.wav
Pre-gap length 0:00:01.33
Peak level 94.1 %
Extraction speed 6.7 X
Track quality 99.9 %
Test CRC D434D042
Copy CRC D434D042
Accurately ripped (confidence 9) [512C506F] (AR v2)
Copy OK
Track 11
Filename G:\EAC Rips\Rahsaan Roland Kirk - Dog Years in the Fourth Ring\03 Natural Black Inventions - Root Strata Disc 3\11 - Dance Of The Lobes.wav
Pre-gap length 0:00:02.30
Peak level 100.0 %
Extraction speed 7.4 X
Track quality 100.0 %
Test CRC F0AAFBB1
Copy CRC F0AAFBB1
Accurately ripped (confidence 9) [3D39A9CB] (AR v2)
Copy OK
Track 12
Filename G:\EAC Rips\Rahsaan Roland Kirk - Dog Years in the Fourth Ring\03 Natural Black Inventions - Root Strata Disc 3\12 - Harder & Harder Spiritual.wav
Pre-gap length 0:00:02.22
Peak level 96.9 %
Extraction speed 7.9 X
Track quality 100.0 %
Test CRC E7081393
Copy CRC E7081393
Accurately ripped (confidence 9) [8F2038B2] (AR v2)
Copy OK
Track 13
Filename G:\EAC Rips\Rahsaan Roland Kirk - Dog Years in the Fourth Ring\03 Natural Black Inventions - Root Strata Disc 3\13 - Black Root.wav
Pre-gap length 0:00:02.33
Peak level 97.3 %
Extraction speed 8.5 X
Track quality 100.0 %
Test CRC 17B2A8E1
Copy CRC 17B2A8E1
Accurately ripped (confidence 9) [715A57A1] (AR v2)
Copy OK
All tracks accurately ripped
No errors occurred
End of status report
==== Log checksum 5796C3E8FAEFF2E2947E33EDCA1B9EE69185EA72A1060E8B961E0ECDA098B941 ====
 
Содержание индексной карты (.CUE)
REM GENRE Jazz
REM DATE 1997
REM DISCID AF08DB0D
REM COMMENT "ExactAudioCopy v1.0b3"
PERFORMER "Rahsaan Roland Kirk"
TITLE "Dog Years in the Fourth Ring CD3"
FILE "01 - Something for Trane That Trane Could Have Said.wav" WAVE
TRACK 01 AUDIO
TITLE "Something for Trane That Trane Could Have Said"
PERFORMER "Rahsaan Roland Kirk"
PREGAP 00:00:12
INDEX 01 00:00:00
TRACK 02 AUDIO
TITLE "Island Cry"
PERFORMER "Rahsaan Roland Kirk"
INDEX 00 03:06:68
FILE "02 - Island Cry.wav" WAVE
INDEX 01 00:00:00
TRACK 03 AUDIO
TITLE "Runnin' from the Trash"
PERFORMER "Rahsaan Roland Kirk"
INDEX 00 03:52:31
FILE "03 - Runnin' from the Trash.wav" WAVE
INDEX 01 00:00:00
TRACK 04 AUDIO
TITLE "Day Dream"
PERFORMER "Rahsaan Roland Kirk"
INDEX 00 02:13:33
FILE "04 - Day Dream.wav" WAVE
INDEX 01 00:00:00
TRACK 05 AUDIO
TITLE "The Ragman and the Junkman They Ran from the Businessman They Laughed and He Cried"
PERFORMER "Rahsaan Roland Kirk"
INDEX 00 03:38:45
FILE "05 - The Ragman and the Junkman They Ran from the Businessman They Laughed and He Cried.wav" WAVE
INDEX 01 00:00:00
TRACK 06 AUDIO
TITLE "Breath-A-Thon"
PERFORMER "Rahsaan Roland Kirk"
INDEX 00 03:01:55
FILE "06 - Breath-A-Thon.wav" WAVE
INDEX 01 00:00:00
TRACK 07 AUDIO
TITLE "Rahsaanica"
PERFORMER "Rahsaan Roland Kirk"
INDEX 00 01:54:57
FILE "07 - Rahsaanica.wav" WAVE
INDEX 01 00:00:00
TRACK 08 AUDIO
TITLE "Raped Voices"
PERFORMER "Rahsaan Roland Kirk"
INDEX 00 03:43:20
FILE "08 - Raped Voices.wav" WAVE
INDEX 01 00:00:00
TRACK 09 AUDIO
TITLE "Haunted Feelings"
PERFORMER "Rahsaan Roland Kirk"
INDEX 00 01:51:02
FILE "09 - Haunted Feelings.wav" WAVE
INDEX 01 00:00:00
TRACK 10 AUDIO
TITLE "Prelude Back Home"
PERFORMER "Rahsaan Roland Kirk"
INDEX 00 02:25:05
FILE "10 - Prelude Back Home.wav" WAVE
INDEX 01 00:00:00
TRACK 11 AUDIO
TITLE "Dance of the Lobes"
PERFORMER "Rahsaan Roland Kirk"
INDEX 00 03:43:10
FILE "11 - Dance of the Lobes.wav" WAVE
INDEX 01 00:00:00
TRACK 12 AUDIO
TITLE "Harder & Harder Spiritual"
PERFORMER "Rahsaan Roland Kirk"
INDEX 00 02:04:40
FILE "12 - Harder & Harder Spiritual.wav" WAVE
INDEX 01 00:00:00
TRACK 13 AUDIO
TITLE "Black Root"
PERFORMER "Rahsaan Roland Kirk"
INDEX 00 02:32:33
FILE "13 - Black Root.wav" WAVE
INDEX 01 00:00:00
 
Отчет CUETools
[CUETools log; Date: 20.07.2014 20:41:44; Version: 2.1.4]
Pregap length 00:00:12.
[CTDB TOCID: 5ZhEnWwWKY7kcuT_8zWiHS3r97k-] found.
Track | CTDB Status
1 | (1/1) Accurately ripped
2 | (1/1) Accurately ripped
3 | (1/1) Accurately ripped
4 | (1/1) Accurately ripped
5 | (1/1) Accurately ripped
6 | (1/1) Accurately ripped
7 | (1/1) Accurately ripped
8 | (1/1) Accurately ripped
9 | (1/1) Accurately ripped
10 | (1/1) Accurately ripped
11 | (1/1) Accurately ripped
12 | (1/1) Accurately ripped
13 | (1/1) Accurately ripped
[AccurateRip ID: 0012afd8-00b89e25-af08db0d] found.
Track [ CRC | V2 ] Status
01 [0b2ae74c|5237aee4] (16+09/25) Accurately ripped
02 [596ff09b|80d0055d] (16+09/25) Accurately ripped
03 [077e992f|7bc7a951] (16+09/25) Accurately ripped
04 [7caeae39|75203d55] (16+09/25) Accurately ripped
05 [1ac10052|13862171] (16+09/25) Accurately ripped
06 [30890ee3|a917c213] (16+09/25) Accurately ripped
07 [4e9c77a7|731fce1b] (16+09/25) Accurately ripped
08 [1bd0878b|4ea0e4f9] (16+09/25) Accurately ripped
09 [4795e957|cb36188d] (16+09/25) Accurately ripped
10 [53cd719f|512c506f] (16+09/25) Accurately ripped
11 [18874d64|3d39a9cb] (16+09/25) Accurately ripped
12 [55bb510f|8f2038b2] (16+09/25) Accurately ripped
13 [cd4af3eb|715a57a1] (16+09/25) Accurately ripped
Track Peak [ CRC32 ] [W/O NULL] [ LOG ]
-- 100,0 [E9CC4DAD] [68D3B8D2]
01 85,2 [A070CD49] [C62DE152] CRC32
02 95,4 [F51B9324] [34CDD36D] CRC32
03 73,5 [71DF058A] [CB9579B3] CRC32
04 94,3 [29B2A58F] [DAD185B2] CRC32
05 90,4 [80C30CDD] [6B2DD814] CRC32
06 97,2 [28B6933A] [D2E2700E] CRC32
07 89,4 [97D5B0D5] [5D51C383] CRC32
08 98,9 [30AB231A] [E0539E8A] CRC32
09 85,9 [8BE693DF] [D5CF6213] CRC32
10 94,1 [D434D042] [43C535F2] CRC32
11 100,0 [F0AAFBB1] [E12D1B01] CRC32
12 96,9 [E7081393] [94433A7C] CRC32
13 97,3 [17B2A8E1] [123F09C1] CRC32
 
Review by Thom Jurek
This three-CD box set, in producer and then label Boss' weirdly wired brain, encompasses two different sides of Rahsaan Roland Kirk. Discs one and two represent sporadic live recordings of Kirk from 1962 to 1972, all of them previously unreleased and issued courtesy of a Kirk collector named George Bonafacio. These two discs contain Kirk classics such as "Domino," "Blacknuss," and an excerpt from "Three for the Festival," as well as singular Kirk interpretations of "I Say a Little Prayer," "Freddie Freeloader," "Lester Leaps In," "Giant Steps," "Sister Sadie," and more. These two discs are chock-full of stellar performances that are well-recorded despite being fan tapes. The musicians on these dates range from bassist Niels-Henning Ørsted Pederson to Hilton Ruiz, Jerome Cooper, Tete Montoliu, and many others. None of this material is substandard. Kirk wastes no time on the opener, "Domino," in breaking out the whistles in his solo. The blues range is deep on many of these tracks, as is the entertainment value. Kirk was a performer as much as he was a musician, before and after the stroke. His lyric and harmonic sensibilities were deeply embedded in one another, and his way of crossing harmonic strategies was truly singular because it was so unorthodox (check his gorgeous opening and full read of "I Remember Clifford" or the excerpt from his medley of "Blue Monk" and "Misterioso" for examples). The fact that he could play two melodies at once was only one of his many skills. In any case, anyone looking for live Kirk apart from the Montreaux recordings would be well-advised to seek these out. Disc three is a CD issue of Natural Black Inventions: Root Strata, his worst-selling and most critically dumped-on studio record. Released in 1971, it featured Kirk on all instruments. Natural Black Inventions is one of the heaviest records Kirk ever released, a completely focused meditation on mode, rhythm, drone, and the blues' context within them. Here was an honest, non-abstract attempt to put Eastern music up against the blues and see what happened. Using everything from his saxophones and flutes to his strich, manzello, harmonium, drums, and bird-and-duck calls years before John Zorn knew they existed as musical instruments, Kirk took his black experience and rooted it in the experience of the day, as well as in antiquity and in the history of jazz, soul, R&B, the blues, and even Yiddish music (check out "Island Cry" for a solid example, where the barroom meets the Jewish exodus to the slave call-and-response hollers in the fields). And the fact that it goes on and on for 45 minutes is so breathtaking that it becomes heartbreaking. Natural Black Inventions: Root Strata is its own classic, and it deserved its own release apart from the package, but listeners will have to take what they can get. For this album alone, this package is worth the price.
Приватный:
Нет (DHT включён)
Размер:
937.64 Мб (983,184,304 байт) » файлов: 62
Участники:
0 раздают, 0 качают (0 участников всего)
Внешние участники:
3 раздают, 1 качают (4 участников всего) [ Обновить ]
No seeders - write personal message to M0p94ok. Нет сидеров - пишите в личку M0p94ok.
11:18
105
Нет комментариев. Ваш будет первым!