Поиск

(Post-Bop, Fusion, Jazz-Funk) [CD] Rahsaan Roland Kirk - Blacknuss - 1972 (2005), FLAC (tracks+.cue), lossless

(Post-Bop, Fusion, Jazz-Funk) [CD] Rahsaan Roland Kirk - Blacknuss - 1972 (2005), FLAC (tracks+.cue), lossless
Треклист:
Rahsaan Roland Kirk - Blacknuss
Жанр: Post-Bop, Fusion, Jazz-Funk
Носитель: CD
Страна-производитель диска (релиза): EU
Год издания: 1972 (2005)
Издатель (лейбл): Atlantic/Warner Jazz
Номер по каталогу: 8122731712
Страна исполнителя (группы): США
Аудиокодек: FLAC (*.flac)
Тип рипа: tracks+.cue
Битрейт аудио: lossless
Продолжительность: 42:40
Источник (релизер): shinkibo (what)
Наличие сканов в содержимом раздачи: нет
Треклист:
01. Ain't No Sunshine (Withers) - 2:24
02. What's Goin' On, Mercy Mercy Me (The Ecology) (Benson-Cleveland-Gaye) - 3:44
03. I Love You Yes I Do (Allen-Cameron) - 2:48
04. Take Me Girl, I'm Ready (Bristol-Sawyer-Ware) - 3:18
05. My Girl (Robinson-White) - 3:04
06. Which Way Is It Going (Kirk) - 2:27
07. One Nation (Burton) - 3:40
08. Never Can Say Goodbye (Davis) - 4:01
09. Old Rugged Cross (Trad.) - 7:13
10. Make It with You (Gates) - 4:49
11. Blacknuss (Kirk) - 5:12
 
Лог создания рипа
Exact Audio Copy V1.0 beta 3 from 29. August 2011
EAC extraction logfile from 28. October 2015, 21:22
Rahsaan Roland Kirk / Blacknuss
Used drive : hp DVD-RAM GHB0N Adapter: 0 ID: 0
Read mode : Secure
Utilize accurate stream : Yes
Defeat audio cache : Yes
Make use of C2 pointers : No
Read offset correction : 6
Overread into Lead-In and Lead-Out : No
Fill up missing offset samples with silence : Yes
Delete leading and trailing silent blocks : No
Null samples used in CRC calculations : Yes
Used interface : Native Win32 interface for Win NT & 2000
Gap handling : Appended to previous track
Used output format : User Defined Encoder
Selected bitrate : 1024 kBit/s
Quality : High
Add ID3 tag : No
Command line compressor : C:\Program Files (x86)\Exact Audio Copy\Flac\flac.exe
Additional command line options : -8 -V -T "ARTIST=%artist%" -T "TITLE=%title%" -T "ALBUM=%albumtitle%" -T "DATE=%year%" -T "TRACKNUMBER=%tracknr%" -T "GENRE=%genre%" -T "PERFORMER=%albuminterpret%" -T "COMPOSER=%composer%" %haslyrics%--tag-from-file=LYRICS="%lyricsfile%"%haslyrics% -T "ALBUMARTIST=%albumartist%" -T "DISCNUMBER=%cdnumber%" -T "TOTALDISCS=%totalcds%" -T "TOTALTRACKS=%numtracks%" -T "COMMENT=%comment%" %source% -o %dest%
TOC of the extracted CD
Track | Start | Length | Start sector | End sector
---------------------------------------------------------
1 | 0:00.00 | 2:24.02 | 0 | 10801
2 | 2:24.02 | 3:44.26 | 10802 | 27627
3 | 6:08.28 | 2:47.63 | 27628 | 40215
4 | 8:56.16 | 3:18.31 | 40216 | 55096
5 | 12:14.47 | 3:04.17 | 55097 | 68913
6 | 15:18.64 | 2:26.59 | 68914 | 79922
7 | 17:45.48 | 3:40.14 | 79923 | 96436
8 | 21:25.62 | 4:01.14 | 96437 | 114525
9 | 25:27.01 | 7:12.48 | 114526 | 146973
10 | 32:39.49 | 4:49.13 | 146974 | 168661
11 | 37:28.62 | 5:11.56 | 168662 | 192042
Track 1
Filename E:\WHAT.CD\000TEMP\Rashsaan Roland Kirk - Blacknuss (1972, 2005 remastered) [FLAC]\01 - Ain't No Sunshine.wav
Pre-gap length 0:00:02.00
Peak level 85.1 %
Extraction speed 1.5 X
Track quality 100.0 %
Test CRC AA2AFB46
Copy CRC AA2AFB46
Accurately ripped (confidence 8) [6ED9517C] (AR v2)
Copy OK
Track 2
Filename E:\WHAT.CD\000TEMP\Rashsaan Roland Kirk - Blacknuss (1972, 2005 remastered) [FLAC]\02 - What's Goin' On, Mercy Mercy Me (The Ecology).wav
Pre-gap length 0:00:01.60
Peak level 93.8 %
Extraction speed 1.8 X
Track quality 100.0 %
Test CRC A5B365EC
Copy CRC A5B365EC
Accurately ripped (confidence 7) [1ECEB5D8] (AR v2)
Copy OK
Track 3
Filename E:\WHAT.CD\000TEMP\Rashsaan Roland Kirk - Blacknuss (1972, 2005 remastered) [FLAC]\03 - I Love You Yes I Do.wav
Pre-gap length 0:00:01.60
Peak level 91.3 %
Extraction speed 1.9 X
Track quality 100.0 %
Test CRC 07B1681C
Copy CRC 07B1681C
Accurately ripped (confidence 8) [09EE0F62] (AR v2)
Copy OK
Track 4
Filename E:\WHAT.CD\000TEMP\Rashsaan Roland Kirk - Blacknuss (1972, 2005 remastered) [FLAC]\04 - Take Me Girl, I'm Ready.wav
Pre-gap length 0:00:01.60
Peak level 93.8 %
Extraction speed 2.0 X
Track quality 100.0 %
Test CRC 419ECAFC
Copy CRC 419ECAFC
Accurately ripped (confidence 7) [4EEAF907] (AR v2)
Copy OK
Track 5
Filename E:\WHAT.CD\000TEMP\Rashsaan Roland Kirk - Blacknuss (1972, 2005 remastered) [FLAC]\05 - My Girl.wav
Pre-gap length 0:00:01.60
Peak level 93.7 %
Extraction speed 1.5 X
Track quality 99.9 %
Test CRC A32FA171
Copy CRC A32FA171
Accurately ripped (confidence 8) [749838DF] (AR v2)
Copy OK
Track 6
Filename E:\WHAT.CD\000TEMP\Rashsaan Roland Kirk - Blacknuss (1972, 2005 remastered) [FLAC]\06 - Which Way Is It Going.wav
Pre-gap length 0:00:01.60
Peak level 93.8 %
Extraction speed 2.2 X
Track quality 100.0 %
Test CRC 34301674
Copy CRC 34301674
Accurately ripped (confidence 7) [50AC150E] (AR v2)
Copy OK
Track 7
Filename E:\WHAT.CD\000TEMP\Rashsaan Roland Kirk - Blacknuss (1972, 2005 remastered) [FLAC]\07 - One Nation.wav
Pre-gap length 0:00:01.60
Peak level 93.8 %
Extraction speed 2.4 X
Track quality 100.0 %
Test CRC 34EB4D8D
Copy CRC 34EB4D8D
Accurately ripped (confidence 8) [E5CCD91C] (AR v2)
Copy OK
Track 8
Filename E:\WHAT.CD\000TEMP\Rashsaan Roland Kirk - Blacknuss (1972, 2005 remastered) [FLAC]\08 - Never Can Say Goodbye.wav
Pre-gap length 0:00:01.60
Peak level 84.2 %
Extraction speed 2.6 X
Track quality 100.0 %
Test CRC 1BC31598
Copy CRC 1BC31598
Accurately ripped (confidence 7) [6EF0D42D] (AR v2)
Copy OK
Track 9
Filename E:\WHAT.CD\000TEMP\Rashsaan Roland Kirk - Blacknuss (1972, 2005 remastered) [FLAC]\09 - Old Rugged Cross.wav
Pre-gap length 0:00:01.60
Peak level 93.9 %
Extraction speed 3.0 X
Track quality 100.0 %
Test CRC B1524F2E
Copy CRC B1524F2E
Accurately ripped (confidence 8) [912CAC9A] (AR v2)
Copy OK
Track 10
Filename E:\WHAT.CD\000TEMP\Rashsaan Roland Kirk - Blacknuss (1972, 2005 remastered) [FLAC]\10 - Make It With You.wav
Pre-gap length 0:00:01.60
Peak level 79.2 %
Extraction speed 2.7 X
Track quality 99.9 %
Test CRC EA572A3E
Copy CRC EA572A3E
Accurately ripped (confidence 8) [49B1B338] (AR v2)
Copy OK
Track 11
Filename E:\WHAT.CD\000TEMP\Rashsaan Roland Kirk - Blacknuss (1972, 2005 remastered) [FLAC]\11 - Blacknuss.wav
Pre-gap length 0:00:01.60
Peak level 83.8 %
Extraction speed 2.9 X
Track quality 99.9 %
Test CRC 7DF3466B
Copy CRC 7DF3466B
Accurately ripped (confidence 8) [A71B79DE] (AR v2)
Copy OK
All tracks accurately ripped
No errors occurred
End of status report
---- CUETools DB Plugin V2.1.3
[CTDB TOCID: S.sWrdDsPTuTl.H9Hrvv4HbAti8-] found, Submit result: S.sWrdDsPTuTl.H9Hrvv4HbAti8- has been confirmed
[44fdd125] (5/5) Accurately ripped
==== Log checksum B6BCD831D7363864765A743197B7A9612CAE8BE50AAF895A5644ADBB72A20B18 ====
 
Содержание индексной карты (.CUE)
REM GENRE Jazz
REM DATE 1972
REM DISCID 8D0A000B
REM COMMENT "ExactAudioCopy v1.0b3"
CATALOG 0081227317126
PERFORMER "Rahsaan Roland Kirk"
TITLE "Blacknuss"
FILE "01 - Ain't No Sunshine.wav" WAVE
TRACK 01 AUDIO
TITLE "Ain't No Sunshine"
PERFORMER "Rahsaan Roland Kirk"
ISRC USAT20105354
INDEX 01 00:00:00
TRACK 02 AUDIO
TITLE "What's Goin' On, Mercy Mercy Me (The Ecology)"
PERFORMER "Rahsaan Roland Kirk"
ISRC USAT20105355
INDEX 00 02:22:32
FILE "02 - What's Goin' On, Mercy Mercy Me (The Ecology).wav" WAVE
INDEX 01 00:00:00
TRACK 03 AUDIO
TITLE "I Love You Yes I Do"
PERFORMER "Rahsaan Roland Kirk"
ISRC USAT20105356
INDEX 00 03:42:56
FILE "03 - I Love You Yes I Do.wav" WAVE
INDEX 01 00:00:00
TRACK 04 AUDIO
TITLE "Take Me Girl, I'm Ready"
PERFORMER "Rahsaan Roland Kirk"
ISRC USAT20105357
INDEX 00 02:46:18
FILE "04 - Take Me Girl, I'm Ready.wav" WAVE
INDEX 01 00:00:00
TRACK 05 AUDIO
TITLE "My Girl"
PERFORMER "Rahsaan Roland Kirk"
ISRC USAT20105358
INDEX 00 03:16:61
FILE "05 - My Girl.wav" WAVE
INDEX 01 00:00:00
TRACK 06 AUDIO
TITLE "Which Way Is It Going"
PERFORMER "Rahsaan Roland Kirk"
ISRC USAT20105359
INDEX 00 03:02:47
FILE "06 - Which Way Is It Going.wav" WAVE
INDEX 01 00:00:00
TRACK 07 AUDIO
TITLE "One Nation"
PERFORMER "Rahsaan Roland Kirk"
ISRC USAT20105360
INDEX 00 02:25:14
FILE "07 - One Nation.wav" WAVE
INDEX 01 00:00:00
TRACK 08 AUDIO
TITLE "Never Can Say Goodbye"
PERFORMER "Rahsaan Roland Kirk"
ISRC USAT20105361
INDEX 00 03:38:44
FILE "08 - Never Can Say Goodbye.wav" WAVE
INDEX 01 00:00:00
TRACK 09 AUDIO
TITLE "Old Rugged Cross"
PERFORMER "Rahsaan Roland Kirk"
ISRC USAT20105362
INDEX 00 03:59:44
FILE "09 - Old Rugged Cross.wav" WAVE
INDEX 01 00:00:00
TRACK 10 AUDIO
TITLE "Make It with You"
PERFORMER "Rahsaan Roland Kirk"
ISRC USAT20105363
INDEX 00 07:11:03
FILE "10 - Make It with You.wav" WAVE
INDEX 01 00:00:00
TRACK 11 AUDIO
TITLE "Blacknuss"
PERFORMER "Rahsaan Roland Kirk"
ISRC USAT20105364
INDEX 00 04:47:43
FILE "11 - Blacknuss.wav" WAVE
INDEX 01 00:00:00
 
Отчет CUETools
[CUETools log; Date: 31.10.2015 2:07:59; Version: 2.1.5]
[CTDB TOCID: S.sWrdDsPTuTl.H9Hrvv4HbAti8-] found.
Track | CTDB Status
1 | (6/6) Accurately ripped
2 | (6/6) Accurately ripped
3 | (6/6) Accurately ripped
4 | (6/6) Accurately ripped
5 | (6/6) Accurately ripped
6 | (6/6) Accurately ripped
7 | (6/6) Accurately ripped
8 | (6/6) Accurately ripped
9 | (6/6) Accurately ripped
10 | (6/6) Accurately ripped
11 | (6/6) Accurately ripped
[AccurateRip ID: 000f4706-00887f8f-8d0a000b] found.
Track [ CRC | V2 ] Status
01 [c0b7ce22|6ed9517c] (04+08/12) Accurately ripped
02 [9a6d7d48|1eceb5d8] (04+07/11) Accurately ripped
03 [f79a4357|09ee0f62] (04+08/12) Accurately ripped
04 [a88d46bf|4eeaf907] (04+07/11) Accurately ripped
05 [5f21f8d2|749838df] (04+08/12) Accurately ripped
06 [41fe9639|50ac150e] (04+07/11) Accurately ripped
07 [c5faf174|e5ccd91c] (04+08/12) Accurately ripped
08 [3b40a26b|6ef0d42d] (04+07/11) Accurately ripped
09 [b80121c9|912cac9a] (04+08/12) Accurately ripped
10 [e69bcecd|49b1b338] (04+08/12) Accurately ripped
11 [4635a78e|a71b79de] (04+08/12) Accurately ripped
Track Peak [ CRC32 ] [W/O NULL] [ LOG ]
-- 93,9 [989060B9] [B59954A3]
01 85,1 [AA2AFB46] [725254A1] CRC32
02 93,8 [A5B365EC] [EE131DC7] CRC32
03 91,3 [07B1681C] [43E30BBF] CRC32
04 93,8 [419ECAFC] [FADDE637] CRC32
05 93,7 [A32FA171] [BA15E3B4] CRC32
06 93,8 [34301674] [D24FB50F] CRC32
07 93,8 [34EB4D8D] [587E772D] CRC32
08 84,2 [1BC31598] [0A8EC259] CRC32
09 93,9 [B1524F2E] [37802675] CRC32
10 79,2 [EA572A3E] [28B695F8] CRC32
11 83,8 [7DF3466B] [48BA857E] CRC32
 
AllMusic Review by Thom Jurek
From its opening bars, with Bill Salter's bass and Rahsaan's flute passionately playing Bill Withers' "Ain't No Sunshine," you know this isn't an ordinary Kirk album (were any of them?). As the string section, electric piano, percussion, and Cornel Dupree's guitar slip in the back door, one can feel the deep soul groove Kirk is bringing to the jazz fore here. As the tune fades just two and a half minutes later, the scream of Kirk's tenor comes wailing through the intro of Marvin Gaye's "What's Goin' On," with a funk backdrop and no wink in the corner -- he's serious. With Richard Tee's drums kicking it, the strings developing into a wall of tension in the backing mix, and Charles McGhee's trumpet hurling the long line back at Kirk, all bets are off -- especially when they medley the mother into "Mercy Mercy Me." By the time they reach the end of the Isleys' "I Love You, Yes I Do," with the whistles, gongs, shouting, soul crooning, deep groove hustling, and greasy funk dripping from every sweet-assed note, the record could be over because the world has already turned over and surrendered -- and the album is only ten minutes old! Blacknuss, like The Inflated Tear, Volunteered Slavery, Rip, Rig and Panic, and I Talk to the Spirits, is Kirk at his most visionary. He took the pop out of pop and made it Great Black Music. He took the jazz world down a peg to make it feel its roots in the people's music, and consequently made great jazz from pop tunes in the same way his forbears did with Broadway show tunes. While the entire album shines like a big black sun, the other standouts include a deeply moving read of "My Girl" and a version of "The Old Rugged Cross" that takes it back forever from those white fundamentalists who took all the blood and sweat from its grain and replaced them with cheap tin and collection plates. On Kirk's version, grace doesn't come cheap, though you can certainly be a poor person to receive it. Ladies and gents, Blacknuss is as deep as a soul record can be and as hot as a jazz record has any right to call itself. A work of sheer blacknuss!
 
Состав
Rahsaan Roland Kirk - flute, guitar, arranger, gong, tenor saxophone, vocals, whistle, stritch, manzello
Dick Griffin - trombone
Charles McGhee - trumpet
Billy Butler, Cornell Dupree, Keith Loving - guitar
Sonelius Smith, Richard Tee - piano
Mickey Tucker - organ
Henry Pearson, Bill Salter - bass
Khalil Mhrdi, Bernard "Pretty" Purdie - drums
Joe Habao Texidor - percussion
Arthur Jenkins - conga, cabassa
Richard Landrum - conga
Princess Patience Burton, Cissy Houston - vocals
Joel Dorn - producer
#1,8,11 recorded at Atlantic Recording Studios, New York.
#2-7,9,10 recorded at Regent Sound Studios, New York.
Приватный:
Нет (DHT включён)
Размер:
276.04 Мб (289,452,972 байт) » файлов: 19
Участники:
0 раздают, 0 качают (0 участников всего)
Внешние участники:
1 раздают, 0 качают (1 участников всего) [ Обновить ]
No seeders - write personal message to M0p94ok. Нет сидеров - пишите в личку M0p94ok.
03:33
121
Нет комментариев. Ваш будет первым!