Вы используете незарегистрированную версию компонента "Вкладки"!

Поиск

(Post-Bop, Free Improvisation) Charly Antolini - Knock Out (XRCD24) - 2011, FLAC (image+.cue), lossless

(Post-Bop, Free Improvisation) Charly Antolini - Knock Out (XRCD24) - 2011, FLAC (image+.cue), lossless
Треклист:
Charly Antolini - Knock Out (XRCD24)
Жанр: Post-Bop, Free Improvisation
Страна-производитель диска: Japan
Год издания: 2011
Издатель (лейбл): JETON
Номер по каталогу: VICJ 004-2145
Аудиокодек: FLAC (*.flac)
Тип рипа: image+.cue
Битрейт аудио: lossless
Продолжительность: 32:18
Источник (релизер): Owner Rip
Наличие сканов в содержимом раздачи: да
Треклист:
01. Knock Out [0:16:09.63]
02. Soundcheck With Nippi [0:03:36.35]
03. Bassbrush [0:02:59.28]
04. Crystal For Christel [0:04:16.64]
05. Five For Three [0:04:15.74]
06. Bushfire [0:00:59.04]
 
Лог создания рипа
Exact Audio Copy V1.0 beta 1 from 15. November 2010
EAC extraction logfile from 12. April 2012, 19:07
Charly Antolini / Knock Out (XRCD24)
Used drive : PIONEER DVD-RW DVR-118L Adapter: 4 ID: 0
Read mode : Secure
Utilize accurate stream : Yes
Defeat audio cache : Yes
Make use of C2 pointers : No
Read offset correction : 6
Overread into Lead-In and Lead-Out : No
Fill up missing offset samples with silence : Yes
Delete leading and trailing silent blocks : No
Null samples used in CRC calculations : Yes
Used interface : Native Win32 interface for Win NT & 2000
Used output format : Internal WAV Routines
Sample format : 44.100 Hz; 16 Bit; Stereo
TOC of the extracted CD
Track | Start | Length | Start sector | End sector
---------------------------------------------------------
1 | 0:00.01 | 16:09.63 | 1 | 72738
2 | 16:09.64 | 3:36.35 | 72739 | 88973
3 | 19:46.24 | 2:59.28 | 88974 | 102426
4 | 22:45.52 | 4:16.64 | 102427 | 121690
5 | 27:02.41 | 4:15.74 | 121691 | 140889
6 | 31:18.40 | 0:59.04 | 140890 | 145318
Range status and errors
Selected range
Filename D:\YES ! We Speak Lossless @ ThailandTorrent\Charly Antolini - Knock Out (XRCD24).wav
Peak level 100.0 %
Extraction speed 0.0 X
Range quality 99.9 %
Test CRC 74C37543
Copy CRC 74C37543
Copy OK
No errors occurred
AccurateRip summary
Track 1 accurately ripped (confidence 1) [58FBAA54]
Track 2 accurately ripped (confidence 1) [0CFF9A45]
Track 3 accurately ripped (confidence 1) [715D12B3]
Track 4 accurately ripped (confidence 1) [DADC1DC5]
Track 5 accurately ripped (confidence 1) [D387B5F9]
Track 6 accurately ripped (confidence 1) [0D0166C6]
All tracks accurately ripped
End of status report
==== Log checksum 11FE4DFBC63E69E6B62CD2E8D6120E8A0855ECE31C416FF57C914AA6461BFA41 ====
 
Содержание индексной карты (.CUE)
REM GENRE Jazz
REM DATE 2011
REM DISCID 54079106
REM COMMENT "Original Rip by yo0507"
PERFORMER "Charly Antolini"
TITLE "Knock Out (XRCD24)"
FILE "Charly Antolini - Knock Out (XRCD24).flac" WAVE
TRACK 01 AUDIO
TITLE "Knock Out"
PERFORMER "Charly Antolini"
INDEX 00 00:00:00
INDEX 01 00:00:01
TRACK 02 AUDIO
TITLE "Soundcheck With Nippi"
PERFORMER "Charly Antolini"
INDEX 01 16:09:64
TRACK 03 AUDIO
TITLE "Bassbrush"
PERFORMER "Charly Antolini"
INDEX 01 19:46:24
TRACK 04 AUDIO
TITLE "Crystal For Christel"
PERFORMER "Charly Antolini"
INDEX 01 22:45:52
TRACK 05 AUDIO
TITLE "Five For Three"
PERFORMER "Charly Antolini"
INDEX 01 27:02:41
TRACK 06 AUDIO
TITLE "Bushfire"
PERFORMER "Charly Antolini"
INDEX 01 31:18:40
Any questions -> support@pro-jazz.com. По всем вопросам пишите -> support@pro-jazz.com
02:34
304
Нет комментариев. Ваш будет первым!