Поиск

(Post-Bop, Free Improvisation) [CD] George Adams/Don Pullen Quartet feat. Dannie Richmond and Cameron Brown - Earth Beams (1980) - 2015 {CDSOL-6406}, FLAC (tracks+.cue), lossless

(Post-Bop, Free Improvisation) [CD] George Adams/Don Pullen Quartet feat. Dannie Richmond and Cameron Brown - Earth Beams (1980) - 2015 {CDSOL-6406}, FLAC (tracks+.cue), lossless
Треклист:
George Adams/Don Pullen Quartet - Earth Beams (1980) Жанр: Post-Bop, Free Improvisation
Носитель: CD
Страна-производитель диска: Japan
Год издания: 2015
Издатель (лейбл): Timeless Records/Solid Records Japan/Ultra-Vibe
Номер по каталогу: CDSOL-6406
Аудиокодек: FLAC (*.flac)
Тип рипа: tracks+.cue
Битрейт аудио: lossless
Продолжительность: 39:54
Rip by ruskaval
Наличие сканов в содержимом раздачи: да
Треклист:
01. Earth Beams (7:59)
02. Magnetic Love Field (4:38)
03. Dionysus (7:33)
04. Saturday Nite In The Cosmos (6:47)
05. More Flowers (5:39)
06. Sophisticated Alice (7:18)
Personnel:
George Adams - tenor saxophone, flute, producer
Don Pullen - piano, producer
Dannie Richmond - drums
Cameron Brown - bass
Rec.: Fendal Sound Studio, Loenen Aan de Vecht, Holland, August 3-5, 1980.
 
 
Лог создания рипа
Exact Audio Copy V1.1 from 23. June 2015
EAC extraction logfile from 11. November 2016, 16:11
George Adams / Don Pullen Quartet / Earth Beams
Used drive  : HL-DT-STDVDRAM GP50NW41   Adapter: 1  ID: 0
Read mode               : Secure
Utilize accurate stream : Yes
Defeat audio cache      : Yes
Make use of C2 pointers : No
Read offset correction                      : 6
Overread into Lead-In and Lead-Out          : No
Fill up missing offset samples with silence : Yes
Delete leading and trailing silent blocks   : No
Null samples used in CRC calculations       : Yes
Used interface                              : Native Win32 interface for Win NT & 2000
Gap handling                                : Appended to previous track
Used output format              : User Defined Encoder
Selected bitrate                : 1024 kBit/s
Quality                         : High
Add ID3 tag                     : No
Command line compressor         : C:\Program Files (x86)\FLAC Frontend\tools\flac.exe
Additional command line options : -8 -V -T "ARTIST=%artist%" -T "TITLE=%title%" -T "ALBUM=%albumtitle%" -T "DATE=%year%" -T "TRACKNUMBER=%tracknr%" -T "TOTALTRACKS=%numtracks%" -T "GENRE=%genre%" -T "ALBUMARTIST=%albumartist%" -T "ALBUM ARTIST=%albumartist%" -T "COMMENT=EAC Secure Mode, Test & Copy, AccurateRip, FLAC -8" %source%
TOC of the extracted CD
     Track |   Start  |  Length  | Start sector | End sector
    ---------------------------------------------------------
        1  |  0:00.00 |  7:58.61 |         0    |    35910
        2  |  7:58.61 |  4:37.73 |     35911    |    56758
        3  | 12:36.59 |  7:32.74 |     56759    |    90732
        4  | 20:09.58 |  6:47.02 |     90733    |   121259
        5  | 26:56.60 |  5:38.74 |    121260    |   146683
        6  | 32:35.59 |  7:17.59 |    146684    |   179517
Track  1
     Filename D:\_EAC\George Adams & Don Pullen Quartet - Earth Beams (1980) [FLAC] {CDSOL-6406}\01 - Earth Beams.wav
     Pre-gap length  0:00:02.00
     Peak level 100.0 %
     Extraction speed 1.3 X
     Track quality 100.0 %
     Test CRC 56E1B874
     Copy CRC 56E1B874
     Accurately ripped (confidence 1)  [F04BCA5C]  (AR v2)
     Copy OK
Track  2
     Filename D:\_EAC\George Adams & Don Pullen Quartet - Earth Beams (1980) [FLAC] {CDSOL-6406}\02 - Magnetic Love Field.wav
     Pre-gap length  0:00:01.61
     Peak level 90.9 %
     Extraction speed 1.4 X
     Track quality 100.0 %
     Test CRC 6199E8D4
     Copy CRC 6199E8D4
     Accurately ripped (confidence 1)  [45061FA5]  (AR v2)
     Copy OK
Track  3
     Filename D:\_EAC\George Adams & Don Pullen Quartet - Earth Beams (1980) [FLAC] {CDSOL-6406}\03 - Dionysus.wav
     Pre-gap length  0:00:03.06
     Peak level 96.8 %
     Extraction speed 1.6 X
     Track quality 100.0 %
     Test CRC 8ED742D4
     Copy CRC 8ED742D4
     Accurately ripped (confidence 1)  [94069A4C]  (AR v2)
     Copy OK
Track  4
     Filename D:\_EAC\George Adams & Don Pullen Quartet - Earth Beams (1980) [FLAC] {CDSOL-6406}\04 - Saturday Nite In The Cosmos.wav
     Pre-gap length  0:00:03.20
     Peak level 94.1 %
     Extraction speed 1.7 X
     Track quality 99.9 %
     Test CRC 70DC97FB
     Copy CRC 70DC97FB
     Accurately ripped (confidence 1)  [709D3C7E]  (AR v2)
     Copy OK
Track  5
     Filename D:\_EAC\George Adams & Don Pullen Quartet - Earth Beams (1980) [FLAC] {CDSOL-6406}\05 - More Flowers.wav
     Pre-gap length  0:00:02.57
     Peak level 100.0 %
     Extraction speed 1.8 X
     Track quality 99.9 %
     Test CRC 864E37E2
     Copy CRC 864E37E2
     Accurately ripped (confidence 1)  [06EC586A]  (AR v2)
     Copy OK
Track  6
     Filename D:\_EAC\George Adams & Don Pullen Quartet - Earth Beams (1980) [FLAC] {CDSOL-6406}\06 - Sophisticated Alice.wav
     Pre-gap length  0:00:03.04
     Peak level 99.2 %
     Extraction speed 2.1 X
     Track quality 100.0 %
     Test CRC 4EDF7772
     Copy CRC 4EDF7772
     Accurately ripped (confidence 1)  [301B939F]  (AR v2)
     Copy OK
All tracks accurately ripped
No errors occurred
End of status report
==== Log checksum 2F4DEE44273A302F80DBBE295EFC30464C2D488235071A3BB67FF121BDC522B6 ====
 
 
Содержание индексной карты (.CUE)
REM GENRE Jazz
REM DATE 1980
REM DISCID 4D095906
REM COMMENT "ExactAudioCopy v1.1"
PERFORMER "George Adams / Don Pullen Quartet"
TITLE "Earth Beams"
FILE "01 - Earth Beams.wav" WAVE
  TRACK 01 AUDIO
    TITLE "Earth Beams"
    PERFORMER "George Adams / Don Pullen Quartet"
    INDEX 01 00:00:00
  TRACK 02 AUDIO
    TITLE "Magnetic Love Field"
    PERFORMER "George Adams / Don Pullen Quartet"
    INDEX 00 07:57:00
FILE "02 - Magnetic Love Field.wav" WAVE
    INDEX 01 00:00:00
  TRACK 03 AUDIO
    TITLE "Dionysus"
    PERFORMER "George Adams / Don Pullen Quartet"
    INDEX 00 04:34:67
FILE "03 - Dionysus.wav" WAVE
    INDEX 01 00:00:00
  TRACK 04 AUDIO
    TITLE "Saturday Nite In The Cosmos"
    PERFORMER "George Adams / Don Pullen Quartet"
    INDEX 00 07:29:54
FILE "04 - Saturday Nite In The Cosmos.wav" WAVE
    INDEX 01 00:00:00
  TRACK 05 AUDIO
    TITLE "More Flowers"
    PERFORMER "George Adams / Don Pullen Quartet"
    INDEX 00 06:44:20
FILE "05 - More Flowers.wav" WAVE
    INDEX 01 00:00:00
  TRACK 06 AUDIO
    TITLE "Sophisticated Alice"
    PERFORMER "George Adams / Don Pullen Quartet"
    INDEX 00 05:35:70
FILE "06 - Sophisticated Alice.wav" WAVE
    INDEX 01 00:00:00
 
 
Об альбоме (сборнике)
Reissue with the latest remastering and the original cover artwork. Comes with a description written in Japanese. A firey session from the quartet of George Adams and Don Pullen – a set that has the group stretching out in some of their most spiritual modes, yet still finding plenty of time to swing as well! Adams is tremendous on tenor – a very fresh voice in the post-Coltrane world, with phrasing that is all his own – even more amplified when he switches to flute – and Pullen's got this ability to go outside, and show his knowledge of the darker corners of the keyboard – yet never let that side of his playing overwhelm things, possibly because the rhythmic accompaniment from Cameron Brown on bass and Dannie Richmond on drums is so strong. Tracks are all long, and very individual – with the group in high spirits on the titles "Earth Beams", "Magnetic Love Field", "Saturday Nite In The Cosmos", "More Flowers", and "Dionysus".
For this generally upbeat session – recorded in Holland – Adams is joined by co-leader and longtime colleague pianist Don Pullen, and is backed by drummer Dannie Richmond and bassist Cameron Brown. Richmond spurs the saxophonist on, while Brown strikes hard in support, resulting in some strong solos by Adams on tenor sax. Adams seems to glide effortlessly up and down his horn, his patented licks never tiresome. Most of the original tunes are blowing vehicles, which work well with the superb talent represented here. Pullen is more pensive than usual, but always effective. The lyrical flute work by Adams is a pleasure, but it lacks the verve of his saxophone playing. Some of the best moments come from the interaction between Pullen and Adams, whose legacies left an indelible imprint on late 20th century jazz.
22:10
612
Нет комментариев. Ваш будет первым!