Поиск

(Post-Bop, Egea) [CD] Gabriele Mirabassi, Luciano Biondini, Michel Godard, Francesco D’Auria - Lo stortino - 2000, FLAC (tracks+.cue), lossless

(Post-Bop, Egea) [CD] Gabriele Mirabassi, Luciano Biondini, Michel Godard, Francesco D’Auria - Lo stortino - 2000, FLAC (tracks+.cue), lossless
Треклист:
Gabriele Mirabassi, Luciano Biondini, Michel Godard, Francesco D’Auria / Lo stortino
Жанр: Post-Bop, Egea
Носитель: CD
Страна-производитель диска: Italy
Год издания: 2000
Издатель (лейбл): Egea Records
Номер по каталогу: SCA 079
Аудиокодек: FLAC (*.flac)
Тип рипа: tracks+.cue
Битрейт аудио: lossless
Продолжительность: 43:27
Источник (релизер): я
Наличие сканов в содержимом раздачи: нет
Треклист:
1. Kramara 6:31
2. Hotel Danubio 6:03
3. Parangolé (Pixinguiña) 4:01
4. Novalis 4:44
5. Pupariello 6:18
6. Mascaras 5:27
7. Lo stortino 6:43
8. Madrugadero 3:40
Tutte le composizioni di Gabriele Mirabassi eccetto dove indicato.
Registrato il 22 maggio 2000 al Teatro Subasio di Spello.
Gabriele Mirabassi – clarinetto
Luciano Biondini – fisarmonica
Michel Godard – tuba
Francesco D’Auria – percussioni
 
Лог создания рипа
Exact Audio Copy V1.0 beta 3 from 29. August 2011
EAC extraction logfile from 15. February 2014, 16:02
Gabriele Mirabassi, Luciano Biondini, Michel Godard, Francesco D'Auria / Lo stortino
Used drive  : SlimtypeeNAU508   5   Adapter: 1  ID: 0
Read mode               : Secure
Utilize accurate stream : Yes
Defeat audio cache      : Yes
Make use of C2 pointers : No
Read offset correction                      : 6
Overread into Lead-In and Lead-Out          : No
Fill up missing offset samples with silence : Yes
Delete leading and trailing silent blocks   : No
Null samples used in CRC calculations       : Yes
Used interface                              : Native Win32 interface for Win NT & 2000
Gap handling                                : Appended to previous track
Used output format              : User Defined Encoder
Selected bitrate                : 768 kBit/s
Quality                         : High
Add ID3 tag                     : No
Command line compressor         : C:\Program Files (x86)\Exact Audio Copy\Flac\flac.exe
Additional command line options : -8 -V -T "ARTIST=%artist%" -T "TITLE=%title%" -T "ALBUM=%albumtitle%" -T "DATE=%year%" -T "TRACKNUMBER=%tracknr%" -T "GENRE=%genre%" -T "PERFORMER=%albuminterpret%" -T "COMPOSER=%composer%" -T "ALBUMARTIST=%albumartist%" -T "DISCNUMBER=%cdnumber%" -T "TOTALDISCS=%totalcds%" -T "TOTALTRACKS=%numtracks%" -T "COMMENT=%comment%" %source% -o %dest%
TOC of the extracted CD
     Track |   Start  |  Length  | Start sector | End sector
    ---------------------------------------------------------
        1  |  0:00.00 |  6:30.52 |         0    |    29301
        2  |  6:30.52 |  6:03.10 |     29302    |    56536
        3  | 12:33.62 |  4:01.13 |     56537    |    74624
        4  | 16:35.00 |  4:44.07 |     74625    |    95931
        5  | 21:19.07 |  6:17.53 |     95932    |   124259
        6  | 27:36.60 |  5:27.00 |    124260    |   148784
        7  | 33:03.60 |  6:42.55 |    148785    |   178989
        8  | 39:46.40 |  3:40.27 |    178990    |   195516
Track  1
     Filename C:\EAC rips\01 - Kramara.wav
     Pre-gap length  0:00:02.00
     Peak level 99.2 %
     Extraction speed 2.3 X
     Track quality 100.0 %
     Test CRC 418B559C
     Copy CRC 418B559C
     Accurately ripped (confidence 3)  [9276A39E]  (AR v1)
     Copy OK
Track  2
     Filename C:\EAC rips\02 - Hotel Danubio.wav
     Peak level 99.2 %
     Extraction speed 2.6 X
     Track quality 100.0 %
     Test CRC A50DFEBF
     Copy CRC A50DFEBF
     Accurately ripped (confidence 3)  [38C4ABB6]  (AR v1)
     Copy OK
Track  3
     Filename C:\EAC rips\03 - Parangolé.wav
     Peak level 97.7 %
     Extraction speed 2.7 X
     Track quality 100.0 %
     Test CRC 22661EE3
     Copy CRC 22661EE3
     Accurately ripped (confidence 3)  [B61FDE9A]  (AR v1)
     Copy OK
Track  4
     Filename C:\EAC rips\04 - Novalis.wav
     Peak level 66.2 %
     Extraction speed 3.0 X
     Track quality 100.0 %
     Test CRC 0F74B59F
     Copy CRC 0F74B59F
     Accurately ripped (confidence 3)  [AB183245]  (AR v1)
     Copy OK
Track  5
     Filename C:\EAC rips\05 - Pupariello.wav
     Peak level 99.2 %
     Extraction speed 3.3 X
     Track quality 100.0 %
     Test CRC 829AA3B1
     Copy CRC 829AA3B1
     Accurately ripped (confidence 3)  [882AEF6C]  (AR v1)
     Copy OK
Track  6
     Filename C:\EAC rips\06 - Mascaras.wav
     Peak level 99.2 %
     Extraction speed 3.0 X
     Track quality 99.9 %
     Test CRC 46C2536F
     Copy CRC 46C2536F
     Accurately ripped (confidence 3)  [F38A706C]  (AR v1)
     Copy OK
Track  7
     Filename C:\EAC rips\07 - Lo stortino.wav
     Peak level 99.2 %
     Extraction speed 3.3 X
     Track quality 99.9 %
     Test CRC BF08FC71
     Copy CRC BF08FC71
     Accurately ripped (confidence 3)  [E31BB788]  (AR v1)
     Copy OK
Track  8
     Filename C:\EAC rips\08 - Madrugadero.wav
     Peak level 96.9 %
     Extraction speed 3.7 X
     Track quality 100.0 %
     Test CRC 227F8796
     Copy CRC 227F8796
     Accurately ripped (confidence 3)  [091542C5]  (AR v1)
     Copy OK
All tracks accurately ripped
No errors occurred
End of status report
---- CUETools DB Plugin V2.1.4
[CTDB TOCID: qJAiX5rbKbtgQ6uQTAsJmyR_dvA-] found
Submit result: qJAiX5rbKbtgQ6uQTAsJmyR_dvA- has been confirmed
Track | CTDB Status
  1   | (2/2) Accurately ripped
  2   | (2/2) Accurately ripped
  3   | (2/2) Accurately ripped
  4   | (2/2) Accurately ripped
  5   | (2/2) Accurately ripped
  6   | (2/2) Accurately ripped
  7   | (2/2) Accurately ripped
  8   | (2/2) Accurately ripped
==== Log checksum 0C7A4FEB1C719298C2A19600CEEC5A2B06D2D70187975A2EB315B53D763DE449 ====
 
 
Содержание индексной карты (.CUE)
REM GENRE Jazz
REM DATE 2000
REM DISCID 860A2E08
REM COMMENT "ExactAudioCopy v1.0b3"
PERFORMER "Gabriele Mirabassi, Luciano Biondini, Michel Godard, Francesco D'Auria"
TITLE "Lo stortino"
FILE "01 - Kramara.wav" WAVE
  TRACK 01 AUDIO
    TITLE "Kramara"
    PERFORMER "Gabriele Mirabassi, Luciano Biondini, Michel Godard, Francesco D'Auria"
    INDEX 01 00:00:00
FILE "02 - Hotel Danubio.wav" WAVE
  TRACK 02 AUDIO
    TITLE "Hotel Danubio"
    PERFORMER "Gabriele Mirabassi, Luciano Biondini, Michel Godard, Francesco D'Auria"
    INDEX 01 00:00:00
FILE "03 - Parangolé.wav" WAVE
  TRACK 03 AUDIO
    TITLE "Parangolé"
    PERFORMER "Gabriele Mirabassi, Luciano Biondini, Michel Godard, Francesco D'Auria"
    INDEX 01 00:00:00
FILE "04 - Novalis.wav" WAVE
  TRACK 04 AUDIO
    TITLE "Novalis"
    PERFORMER "Gabriele Mirabassi, Luciano Biondini, Michel Godard, Francesco D'Auria"
    INDEX 01 00:00:00
FILE "05 - Pupariello.wav" WAVE
  TRACK 05 AUDIO
    TITLE "Pupariello"
    PERFORMER "Gabriele Mirabassi, Luciano Biondini, Michel Godard, Francesco D'Auria"
    INDEX 01 00:00:00
FILE "06 - Mascaras.wav" WAVE
  TRACK 06 AUDIO
    TITLE "Mascaras"
    PERFORMER "Gabriele Mirabassi, Luciano Biondini, Michel Godard, Francesco D'Auria"
    INDEX 01 00:00:00
FILE "07 - Lo stortino.wav" WAVE
  TRACK 07 AUDIO
    TITLE "Lo stortino"
    PERFORMER "Gabriele Mirabassi, Luciano Biondini, Michel Godard, Francesco D'Auria"
    INDEX 01 00:00:00
FILE "08 - Madrugadero.wav" WAVE
  TRACK 08 AUDIO
    TITLE "Madrugadero"
    PERFORMER "Gabriele Mirabassi, Luciano Biondini, Michel Godard, Francesco D'Auria"
    INDEX 01 00:00:00
По всем вопросам пишите личное сообщение пользователю M0p94ok.
05:23
464
Нет комментариев. Ваш будет первым!