Поиск

(Post-Bop, Contemporary Jazz, World) [CD] Gregory Privat - Tales Of Cyparis - 2013, FLAC (tracks+.cue), lossless

(Post-Bop, Contemporary Jazz, World) [CD] Gregory Privat - Tales Of Cyparis - 2013, FLAC (tracks+.cue), lossless
Треклист:
Gregory Privat - Tales Of Cyparis
Жанр: Post-Bop, Contemporary Jazz, World
Носитель: CD
Страна-производитель диска: France
Год издания: 2013
Издатель (лейбл): Plus Loin Music
Номер по каталогу: PL4561
Страна: France
Аудиокодек: FLAC (*.flac)
Тип рипа: tracks+.cue
Битрейт аудио: lossless
Продолжительность: 64:00
Источник (релизер): t411 (dtromp)
Наличие сканов в содержимом раздачи: да
Треклист:
01 Four Chords (07:15)
02 Ritournelle (04:44)
03 Phinéas (feat. Joby Bernabé) (00:44)
04 Barnum Circus (05:58)
05 Cyparis Intro (feat. Joby Bernabé) (01:46)
06 Cyparis (05:53)
07 Lari-A (04:38)
08 Precious Song (feat. Gustav Karlström) (04:01)
09 Wake Up! (03:38)
10 Ti Sonson (feat. Joby Bernabé) (01:07)
11 Carbetian Rhapsody (06:00)
12 Far From SD (08:34)
13 An Bel Lanmen (feat. Joby Bernabé) (02:41)
14 Four Chords (feat. Gustav Karlström) (05:54)
 
Лог создания рипа
Exact Audio Copy V1.0 beta 3 from 29. August 2011
EAC extraction logfile from 6. April 2014, 12:33
Gregory Privat / Tales Of Cyparis
Used drive  : PLEXTOR DVDR   PX-860A   Adapter: 0  ID: 0
Read mode               : Secure
Utilize accurate stream : Yes
Defeat audio cache      : Yes
Make use of C2 pointers : No
Read offset correction                      : 96
Overread into Lead-In and Lead-Out          : No
Fill up missing offset samples with silence : Yes
Delete leading and trailing silent blocks   : No
Null samples used in CRC calculations       : Yes
Used interface                              : Native Win32 interface for Win NT & 2000
Gap handling                                : Appended to previous track
Used output format              : User Defined Encoder
Selected bitrate                : 1024 kBit/s
Quality                         : High
Add ID3 tag                     : No
Command line compressor         : C:\Program Files\Exact Audio Copy\Flac\flac.exe
Additional command line options : -8 -V -T "ARTIST=%artist%" -T "TITLE=%title%" -T "ALBUM=%albumtitle%" -T "DATE=%year%" -T "TRACKNUMBER=%tracknr%" -T "TOTALTRACKS=%numtracks%" -T "GENRE=%genre%" -T "ALBUMARTIST=%albumartist%" -T "ALBUM ARTIST=%albumartist%" -T "DISCNUMBER=%cdnumber%" -T "TOTALDISCS=%totalcds%" -T "COMMENT=EAC Secure Mode, Test & Copy, AccurateRip, FLAC -8" %source%
TOC of the extracted CD
     Track |   Start  |  Length  | Start sector | End sector
    ---------------------------------------------------------
        1  |  0:00.00 |  7:15.21 |         0    |    32645
        2  |  7:15.21 |  4:44.14 |     32646    |    53959
        3  | 11:59.35 |  0:44.73 |     53960    |    57332
        4  | 12:44.33 |  5:58.34 |     57333    |    84216
        5  | 18:42.67 |  1:46.64 |     84217    |    92230
        6  | 20:29.56 |  5:53.35 |     92231    |   118740
        7  | 26:23.16 |  4:38.53 |    118741    |   139643
        8  | 31:01.69 |  4:01.19 |    139644    |   157737
        9  | 35:03.13 |  3:38.71 |    157738    |   174158
       10  | 38:42.09 |  1:07.70 |    174159    |   179253
       11  | 39:50.04 |  6:00.19 |    179254    |   206272
       12  | 45:50.23 |  8:34.28 |    206273    |   244850
       13  | 54:24.51 |  2:41.07 |    244851    |   256932
       14  | 57:05.58 |  5:54.33 |    256933    |   283515
Track  1
     Filename O:\DL\Gregory Privat - Tales Of Cyparis (2013) [FLAC]\01 - Four Chords.wav
     Pre-gap length  0:00:02.00
     Peak level 100.0 %
     Extraction speed 1.7 X
     Track quality 100.0 %
     Test CRC 8D0F756C
     Copy CRC 8D0F756C
     Accurately ripped (confidence 2)  [DB169519]  (AR v2)
     Copy OK
Track  2
     Filename O:\DL\Gregory Privat - Tales Of Cyparis (2013) [FLAC]\02 - Ritournelle.wav
     Peak level 100.0 %
     Extraction speed 1.7 X
     Track quality 99.9 %
     Test CRC A7314B5E
     Copy CRC A7314B5E
     Accurately ripped (confidence 2)  [392C9639]  (AR v2)
     Copy OK
Track  3
     Filename O:\DL\Gregory Privat - Tales Of Cyparis (2013) [FLAC]\03 - Phineas.wav
     Pre-gap length  0:00:02.64
     Peak level 100.0 %
     Extraction speed 1.2 X
     Track quality 100.0 %
     Test CRC 047E528E
     Copy CRC 047E528E
     Accurately ripped (confidence 2)  [AC89B1C9]  (AR v2)
     Copy OK
Track  4
     Filename O:\DL\Gregory Privat - Tales Of Cyparis (2013) [FLAC]\04 - Barnum Circus.wav
     Peak level 100.0 %
     Extraction speed 2.1 X
     Track quality 100.0 %
     Test CRC B95A3F28
     Copy CRC B95A3F28
     Accurately ripped (confidence 2)  [3C87E281]  (AR v2)
     Copy OK
Track  5
     Filename O:\DL\Gregory Privat - Tales Of Cyparis (2013) [FLAC]\05 - Cyparis Intro (feat. Joby Bernabe).wav
     Peak level 92.8 %
     Extraction speed 1.4 X
     Track quality 99.9 %
     Test CRC 0C6DA048
     Copy CRC 0C6DA048
     Accurately ripped (confidence 2)  [45C48FCF]  (AR v2)
     Copy OK
Track  6
     Filename O:\DL\Gregory Privat - Tales Of Cyparis (2013) [FLAC]\06 - Cyparis.wav
     Pre-gap length  0:00:01.06
     Peak level 100.0 %
     Extraction speed 2.3 X
     Track quality 100.0 %
     Test CRC 254BFD6D
     Copy CRC 254BFD6D
     Accurately ripped (confidence 2)  [D70C2C9B]  (AR v2)
     Copy OK
Track  7
     Filename O:\DL\Gregory Privat - Tales Of Cyparis (2013) [FLAC]\07 - Lari-a.wav
     Pre-gap length  0:00:01.10
     Peak level 100.0 %
     Extraction speed 2.4 X
     Track quality 100.0 %
     Test CRC 8C06B897
     Copy CRC 8C06B897
     Accurately ripped (confidence 2)  [EBA2A965]  (AR v2)
     Copy OK
Track  8
     Filename O:\DL\Gregory Privat - Tales Of Cyparis (2013) [FLAC]\08 - Precious Song (feat. Gustav Karlstrom).wav
     Pre-gap length  0:00:04.05
     Peak level 100.0 %
     Extraction speed 2.4 X
     Track quality 100.0 %
     Test CRC B4C4C28E
     Copy CRC B4C4C28E
     Accurately ripped (confidence 2)  [3DF8125A]  (AR v2)
     Copy OK
Track  9
     Filename O:\DL\Gregory Privat - Tales Of Cyparis (2013) [FLAC]\09 - Wake Up !.wav
     Peak level 100.0 %
     Extraction speed 2.5 X
     Track quality 100.0 %
     Test CRC DC7C5A13
     Copy CRC DC7C5A13
     Accurately ripped (confidence 2)  [CA2758B1]  (AR v2)
     Copy OK
Track 10
     Filename O:\DL\Gregory Privat - Tales Of Cyparis (2013) [FLAC]\10 - Ti Sonson (feat. Joby Bernabe).wav
     Pre-gap length  0:00:01.94
     Peak level 69.0 %
     Extraction speed 1.9 X
     Track quality 100.0 %
     Test CRC 3210A26E
     Copy CRC 3210A26E
     Accurately ripped (confidence 2)  [1C643BCA]  (AR v2)
     Copy OK
Track 11
     Filename O:\DL\Gregory Privat - Tales Of Cyparis (2013) [FLAC]\11 - Carbetian Rhapsody.wav
     Pre-gap length  0:00:01.04
     Peak level 100.0 %
     Extraction speed 2.8 X
     Track quality 100.0 %
     Test CRC 8869D14A
     Copy CRC 8869D14A
     Accurately ripped (confidence 2)  [0AB98C80]  (AR v2)
     Copy OK
Track 12
     Filename O:\DL\Gregory Privat - Tales Of Cyparis (2013) [FLAC]\12 - Far From SD.wav
     Pre-gap length  0:00:03.20
     Peak level 100.0 %
     Extraction speed 3.0 X
     Track quality 100.0 %
     Test CRC 43DC52A6
     Copy CRC 43DC52A6
     Accurately ripped (confidence 2)  [934AB066]  (AR v2)
     Copy OK
Track 13
     Filename O:\DL\Gregory Privat - Tales Of Cyparis (2013) [FLAC]\13 - An Bel Lanmen (feat. Joby Bernabe).wav
     Pre-gap length  0:00:01.48
     Peak level 100.0 %
     Extraction speed 2.7 X
     Track quality 100.0 %
     Test CRC 12493969
     Copy CRC 12493969
     Accurately ripped (confidence 2)  [20AC7070]  (AR v2)
     Copy OK
Track 14
     Filename O:\DL\Gregory Privat - Tales Of Cyparis (2013) [FLAC]\14 - Four Chords (feat. Gustav Karlstrom).wav
     Peak level 100.0 %
     Extraction speed 3.1 X
     Track quality 100.0 %
     Test CRC 7DAF8F7B
     Copy CRC 7DAF8F7B
     Accurately ripped (confidence 2)  [A1778B81]  (AR v2)
     Copy OK
All tracks accurately ripped
No errors occurred
End of status report
---- CUETools DB Plugin V2.1.3
[CTDB TOCID: H_vNfnzz7IWkMPltYM_CZjmtSdQ-] found, Submit result: H_vNfnzz7IWkMPltYM_CZjmtSdQ- has been confirmed
[d8ecfb79] (3/5) Accurately ripped
[4156c450] (2/5) Differs in 35 samples @60:10:30-60:10:31
You can use CUETools to repair this rip.
==== Log checksum 589F88281C82C7144EBAFB225835300E0DBF7206A1A454809DD4617AAC9AECF1 ====
 
 
Содержание индексной карты (.CUE)
REM GENRE Jazz
REM DATE 2013
REM DISCID B50EC40E
REM COMMENT "ExactAudioCopy v1.0b3"
PERFORMER "Gregory Privat"
TITLE "Tales Of Cyparis"
FILE "01 - Four Chords.wav" WAVE
  TRACK 01 AUDIO
    TITLE "Four Chords"
    PERFORMER "Gregory Privat"
    INDEX 01 00:00:00
FILE "02 - Ritournelle.wav" WAVE
  TRACK 02 AUDIO
    TITLE "Ritournelle"
    PERFORMER "Gregory Privat"
    INDEX 01 00:00:00
  TRACK 03 AUDIO
    TITLE "Phineas (feat. Joby Bernabe)"
    PERFORMER "Gregory Privat"
    INDEX 00 04:41:41
FILE "03 - Phineas (feat. Joby Bernabe).wav" WAVE
    INDEX 01 00:00:00
FILE "04 - Barnum Circus.wav" WAVE
  TRACK 04 AUDIO
    TITLE "Barnum Circus"
    PERFORMER "Gregory Privat"
    INDEX 01 00:00:00
FILE "05 - Cyparis Intro (feat. Joby Bernabe).wav" WAVE
  TRACK 05 AUDIO
    TITLE "Cyparis Intro (feat. Joby Bernabe)"
    PERFORMER "Gregory Privat"
    INDEX 01 00:00:00
  TRACK 06 AUDIO
    TITLE "Cyparis"
    PERFORMER "Gregory Privat"
    INDEX 00 01:45:59
FILE "06 - Cyparis.wav" WAVE
    INDEX 01 00:00:00
  TRACK 07 AUDIO
    TITLE "Lari-a"
    PERFORMER "Gregory Privat"
    INDEX 00 05:52:27
FILE "07 - Lari-a.wav" WAVE
    INDEX 01 00:00:00
  TRACK 08 AUDIO
    TITLE "Precious Song (feat. Gustav Karlstrom)"
    PERFORMER "Gregory Privat"
    INDEX 00 04:34:49
FILE "08 - Precious Song (feat. Gustav Karlstrom).wav" WAVE
    INDEX 01 00:00:00
FILE "09 - Wake Up !.wav" WAVE
  TRACK 09 AUDIO
    TITLE "Wake Up !"
    PERFORMER "Gregory Privat"
    INDEX 01 00:00:00
  TRACK 10 AUDIO
    TITLE "Ti Sonson (feat. Joby Bernabe)"
    PERFORMER "Gregory Privat"
    INDEX 00 03:37:00
FILE "10 - Ti Sonson (feat. Joby Bernabe).wav" WAVE
    INDEX 01 00:00:00
  TRACK 11 AUDIO
    TITLE "Carbetian Rhapsody"
    PERFORMER "Gregory Privat"
    INDEX 00 01:06:67
FILE "11 - Carbetian Rhapsody.wav" WAVE
    INDEX 01 00:00:00
  TRACK 12 AUDIO
    TITLE "Far From SD"
    PERFORMER "Gregory Privat"
    INDEX 00 05:57:04
FILE "12 - Far From SD.wav" WAVE
    INDEX 01 00:00:00
  TRACK 13 AUDIO
    TITLE "An Bel Lanmen (feat. Joby Bernabe)"
    PERFORMER "Gregory Privat"
    INDEX 00 08:32:67
FILE "13 - An Bel Lanmen (feat. Joby Bernabe).wav" WAVE
    INDEX 01 00:00:00
FILE "14 - Four Chords (feat. Gustav Karlstrom).wav" WAVE
  TRACK 14 AUDIO
    TITLE "Four Chords (feat. Gustav Karlstrom)"
    PERFORMER "Gregory Privat"
    INDEX 01 00:00:00
 
 
Лог проверки качества
AUDIOCHECKER v2.0 beta (build 457) - by Dester - opdester@freemail.hu
~~~~~~~~~~~~~~~~~~~~~~~~~~~~~~~~~~
-=== DO NOT EDIT THIS FILE! ===-
Path: ...\Gregory Privat - Tales Of Cyparis (2013) [FLAC]
01 -=- 01 - Four Chords.flac -=- CDDA (100%)
02 -=- 02 - Ritournelle.flac -=- CDDA (100%)
03 -=- 03 - Phineas.flac -=- CDDA (100%)
04 -=- 04 - Barnum Circus.flac -=- CDDA (100%)
05 -=- 05 - Cyparis Intro (feat. Joby Bernabe).flac -=- CDDA (100%)
06 -=- 06 - Cyparis.flac -=- CDDA (100%)
07 -=- 07 - Lari-a.flac -=- CDDA (100%)
08 -=- 08 - Precious Song (feat. Gustav Karlstrom).flac -=- CDDA (99%)
09 -=- 09 - Wake Up !.flac -=- CDDA (100%)
10 -=- 10 - Ti Sonson (feat. Joby Bernabe).flac -=- CDDA (100%)
11 -=- 11 - Carbetian Rhapsody.flac -=- CDDA (100%)
12 -=- 12 - Far From SD.flac -=- CDDA (100%)
13 -=- 13 - An Bel Lanmen (feat. Joby Bernabe).flac -=- CDDA (100%)
14 -=- 14 - Four Chords (feat. Gustav Karlstrom).flac -=- CDDA (100%)
Summary 99,93% CDDA
129378164
 
 
Состав
Grégory Privat – piano, Fender Rhodes, Wurlitzer
Manu Codjia – guitare
Jiri Slavik – contrebasse
Arnaud Dolmen – ka
Sonny Troupé – batterie, ka
Adriano Tenorio DD – percussions
Invités:
Gustav Karlström - vocal (8, 14)
Joby Bernabé - spoken word (3, 5, 10, 13)
Quatuor à cordes (Strings Quartet):
Mathias Lévy - 1er violon
Mario Forte - 2er violon
Johan Renard - alto
Clément Petit - violoncelle
07:26
535
Нет комментариев. Ваш будет первым!