Поиск

(Post-Bop, Contemporary Jazz) Gregory Privat & Sonny Troupe - Luminescence - 2015, FLAC (tracks+.cue), lossless

(Post-Bop, Contemporary Jazz) Gregory Privat & Sonny Troupe - Luminescence - 2015, FLAC (tracks+.cue), lossless
Треклист:
Grégory Privat & Sonny Troupé - Luminescence
Жанр: Post-Bop, Contemporary Jazz
Год издания: 2015
Издатель (лейбл): Jazz Family
Номер по каталогу: JF001
Аудиокодек: FLAC (*.flac)
Тип рипа: tracks+.cue
Битрейт аудио: lossless
Продолжительность: 58:54
Rip by dtromp
Наличие сканов в содержимом раздачи: нет
Треклист:
01. Luminescence (6:27)
02. On ka avè piano (3:56)
03. Pasaj (3:36)
04. Zéklè (4:38)
05. Ki tan (4:03)
06. Kong (4:58)
07. Rainy Day (12:52)
08. La chose (5:18)
09. Zendyen (4:08)
10. Improvising In Meudon (8:57)
 
 
Лог создания рипа
Exact Audio Copy V1.1 from 23. June 2015
EAC extraction logfile from 25. September 2015, 10:52
Gregory Privat & Sonny Troupe / Luminescence
Used drive : ATAPI iHBS112 2 Adapter: 1 ID: 0
Read mode : Secure
Utilize accurate stream : Yes
Defeat audio cache : Yes
Make use of C2 pointers : No
Read offset correction : 6
Overread into Lead-In and Lead-Out : No
Fill up missing offset samples with silence : Yes
Delete leading and trailing silent blocks : No
Null samples used in CRC calculations : Yes
Used interface : Native Win32 interface for Win NT & 2000
Gap handling : Appended to previous track
Used output format : User Defined Encoder
Selected bitrate : 1024 kBit/s
Quality : High
Add ID3 tag : No
Command line compressor : C:\Program Files\Exact Audio Copy\Flac\flac.exe
Additional command line options : -8 -V -T "ARTIST=%artist%" -T "TITLE=%title%" -T "ALBUM=%albumtitle%" -T "DATE=%year%" -T "TRACKNUMBER=%tracknr%" -T "TOTALTRACKS=%numtracks%" -T "GENRE=%genre%" -T "ALBUMARTIST=%albumartist%" -T "ALBUM ARTIST=%albumartist%" -T "COMPOSER=%composer%" -T "PERFORMER=%albuminterpret%" -T "DISCNUMBER=%cdnumber%" -T "TOTALDISCS=%totalcds%" -T "COMMENT=EAC Secure Mode, Test & Copy, AccurateRip, FLAC -8" %source%
TOC of the extracted CD
Track | Start | Length | Start sector | End sector
---------------------------------------------------------
1 | 0:00.00 | 6:27.06 | 0 | 29030
2 | 6:27.06 | 3:55.49 | 29031 | 46704
3 | 10:22.55 | 3:36.32 | 46705 | 62936
4 | 13:59.12 | 4:38.00 | 62937 | 83786
5 | 18:37.12 | 4:03.09 | 83787 | 102020
6 | 22:40.21 | 4:58.29 | 102021 | 124399
7 | 27:38.50 | 12:52.11 | 124400 | 182310
8 | 40:30.61 | 5:18.10 | 182311 | 206170
9 | 45:48.71 | 4:07.69 | 206171 | 224764
10 | 49:56.65 | 8:56.48 | 224765 | 265012
Track 1
Filename P:\DL\Gregory Privat & Sonny Troupe - Luminescence (2015) [FLAC]\01 - Luminescence.wav
Pre-gap length 0:00:02.00
Peak level 100.0 %
Extraction speed 4.9 X
Track quality 99.9 %
Test CRC 69E356C2
Copy CRC 69E356C2
Accurately ripped (confidence 3) [BA9AD483] (AR v2)
Copy OK
Track 2
Filename P:\DL\Gregory Privat & Sonny Troupe - Luminescence (2015) [FLAC]\02 - On ka ave piano.wav
Pre-gap length 0:00:01.72
Peak level 100.0 %
Extraction speed 5.8 X
Track quality 100.0 %
Test CRC 277A6EC7
Copy CRC 277A6EC7
Accurately ripped (confidence 3) [2328CF40] (AR v2)
Copy OK
Track 3
Filename P:\DL\Gregory Privat & Sonny Troupe - Luminescence (2015) [FLAC]\03 - Pasaj.wav
Pre-gap length 0:00:01.22
Peak level 100.0 %
Extraction speed 5.0 X
Track quality 99.9 %
Test CRC A3814B00
Copy CRC A3814B00
Accurately ripped (confidence 3) [A372DF6F] (AR v2)
Copy OK
Track 4
Filename P:\DL\Gregory Privat & Sonny Troupe - Luminescence (2015) [FLAC]\04 - Zekle.wav
Peak level 100.0 %
Extraction speed 6.8 X
Track quality 100.0 %
Test CRC 04EE59C3
Copy CRC 04EE59C3
Accurately ripped (confidence 3) [615CFFC6] (AR v2)
Copy OK
Track 5
Filename P:\DL\Gregory Privat & Sonny Troupe - Luminescence (2015) [FLAC]\05 - Ki tan.wav
Peak level 100.0 %
Extraction speed 7.0 X
Track quality 100.0 %
Test CRC 6B0A3BC7
Copy CRC 6B0A3BC7
Accurately ripped (confidence 3) [0820DFF1] (AR v2)
Copy OK
Track 6
Filename P:\DL\Gregory Privat & Sonny Troupe - Luminescence (2015) [FLAC]\06 - Kong.wav
Peak level 100.0 %
Extraction speed 7.6 X
Track quality 100.0 %
Test CRC 31509C81
Copy CRC 31509C81
Accurately ripped (confidence 3) [6A49CBF3] (AR v2)
Copy OK
Track 7
Filename P:\DL\Gregory Privat & Sonny Troupe - Luminescence (2015) [FLAC]\07 - Rainy Day.wav
Pre-gap length 0:00:02.45
Peak level 100.0 %
Extraction speed 8.8 X
Track quality 100.0 %
Test CRC 3C6DA199
Copy CRC 3C6DA199
Accurately ripped (confidence 3) [1046D8A5] (AR v2)
Copy OK
Track 8
Filename P:\DL\Gregory Privat & Sonny Troupe - Luminescence (2015) [FLAC]\08 - La chose.wav
Pre-gap length 0:00:03.58
Peak level 100.0 %
Extraction speed 9.0 X
Track quality 100.0 %
Test CRC C7928AED
Copy CRC C7928AED
Accurately ripped (confidence 3) [B13A1BD5] (AR v2)
Copy OK
Track 9
Filename P:\DL\Gregory Privat & Sonny Troupe - Luminescence (2015) [FLAC]\09 - Zendyen.wav
Pre-gap length 0:00:02.29
Peak level 100.0 %
Extraction speed 9.0 X
Track quality 100.0 %
Test CRC 8F55179E
Copy CRC 8F55179E
Accurately ripped (confidence 3) [76AFB02E] (AR v2)
Copy OK
Track 10
Filename P:\DL\Gregory Privat & Sonny Troupe - Luminescence (2015) [FLAC]\10 - Improvising In Meudon.wav
Pre-gap length 0:00:01.96
Peak level 100.0 %
Extraction speed 10.1 X
Track quality 100.0 %
Test CRC BEA3EF17
Copy CRC BEA3EF17
Accurately ripped (confidence 3) [49FA6D45] (AR v2)
Copy OK
All tracks accurately ripped
No errors occurred
End of status report
---- CUETools DB Plugin V2.1.6
[CTDB TOCID: ZpYLwm8mdWN9sJhGqDiDFDPzBfs-] found
Submit result:
Track | CTDB Status
1 | (1/1) Accurately ripped
2 | (1/1) Accurately ripped
3 | (1/1) Accurately ripped
4 | (1/1) Accurately ripped
5 | (1/1) Accurately ripped
6 | (1/1) Accurately ripped
7 | (1/1) Accurately ripped
8 | (1/1) Accurately ripped
9 | (1/1) Accurately ripped
10 | (1/1) Accurately ripped
==== Log checksum 2450CBD4D5DE7F375EEEBF87355B8C83AB5AAE46C35318C16BA5376167074E4D ====
 
Содержание индексной карты (.CUE)
REM GENRE Jazz
REM DATE 2015
REM DISCID 890DCD0A
REM COMMENT "ExactAudioCopy v1.1"
PERFORMER "Gregory Privat & Sonny Troupe"
TITLE "Luminescence"
FILE "01 - Luminescence.flac" WAVE
TRACK 01 AUDIO
TITLE "Luminescence"
PERFORMER "Gregory Privat & Sonny Troupe"
INDEX 01 00:00:00
TRACK 02 AUDIO
TITLE "On ka avè piano"
PERFORMER "Gregory Privat & Sonny Troupe"
INDEX 00 06:25:27
FILE "02 - On ka ave piano.flac" WAVE
INDEX 01 00:00:00
TRACK 03 AUDIO
TITLE "Pasaj"
PERFORMER "Gregory Privat & Sonny Troupe"
INDEX 00 03:54:32
FILE "03 - Pasaj.flac" WAVE
INDEX 01 00:00:00
FILE "04 - Zekle.flac" WAVE
TRACK 04 AUDIO
TITLE "Zéklè"
PERFORMER "Gregory Privat & Sonny Troupe"
INDEX 01 00:00:00
FILE "05 - Ki tan.flac" WAVE
TRACK 05 AUDIO
TITLE "Ki tan"
PERFORMER "Gregory Privat & Sonny Troupe"
INDEX 01 00:00:00
FILE "06 - Kong.flac" WAVE
TRACK 06 AUDIO
TITLE "Kong"
PERFORMER "Gregory Privat & Sonny Troupe"
INDEX 01 00:00:00
TRACK 07 AUDIO
TITLE "Rainy Day"
PERFORMER "Gregory Privat & Sonny Troupe"
INDEX 00 04:55:70
FILE "07 - Rainy Day.flac" WAVE
INDEX 01 00:00:00
TRACK 08 AUDIO
TITLE "La chose"
PERFORMER "Gregory Privat & Sonny Troupe"
INDEX 00 12:48:42
FILE "08 - La chose.flac" WAVE
INDEX 01 00:00:00
TRACK 09 AUDIO
TITLE "Zendyen"
PERFORMER "Gregory Privat & Sonny Troupe"
INDEX 00 05:15:63
FILE "09 - Zendyen.flac" WAVE
INDEX 01 00:00:00
TRACK 10 AUDIO
TITLE "Improvising In Meudon"
PERFORMER "Gregory Privat & Sonny Troupe"
INDEX 00 04:05:72
FILE "10 - Improvising In Meudon.flac" WAVE
INDEX 01 00:00:00
01:18
566
Нет комментариев. Ваш будет первым!