Поиск

(Post-Bop, Contemporary Jazz, DIW Records) Rodney Whitaker (with James Carter, Alex Harding, Geri Allen a. o.) - Children of the Light - 1996, FLAC (tracks+.cue), lossless

(Post-Bop, Contemporary Jazz, DIW Records) Rodney Whitaker (with James Carter, Alex Harding, Geri Allen a. o.) - Children of the Light - 1996, FLAC (tracks+.cue), lossless
Треклист:
Rodney Whitaker / Children of the Light
Жанр: Post-Bop, Contemporary Jazz, DIW Records
Страна-производитель диска: Japan
Год издания: 1996
Издатель (лейбл): DIW Records
Номер по каталогу: DIW-907
Аудиокодек: FLAC (*.flac)
Тип рипа: tracks+.cue
Битрейт аудио: lossless
Продолжительность: 1:09:36
Источник (релизер): Max Monteiro
Наличие сканов в содержимом раздачи: нет
Треклист:
01. Mandela’s Muse (Kenn Cox) 6:47
02. Broadway (Henry Woode / Teddy McRae / Bill Bird) 4:30
03. One Silent Moment (Monzola Whitaker) 6:06
04. On Green Dolphin Street (Ned Washington / Bronislaw Kaper) 5:32
05. Woman Child (Rodney Whitaker) 5:14
06. Mood Swings (Cassius Richmond) 7:26
07. (Queen) Roz (Rodney Whitaker) 6:53
08. Children of the Light (Roland Guerrin) 5:51
09. Langman (Rodney Whitaker) 7:00
10. El Morro (Francisco Mora) 7:14
11. Cultural Warrior (Francisco Mora) 7:02
Recorded at Power Station, NYC on September 13 & 14, 1995.
Nicholas Payton – Trumpet (1, 2, 3, 7, 8)
Wallace Roney – Trumpet (4, 6, 9, 10)
James Carter – Tenor Saxophone (except 5, 8, 11)
Cassius Richmond – Flute (1, 3, 10)
Cyrus Chestnut – Piano (except 4, 5, 10)
Geri Allen – Piano (4, 10)
Alex Harding – Baritone Saxophone (3)
Rodney Whitaker – Bass
Kariem Riggins – Drums (1, 2, 3, 7, 8, 11)
Gregory Hutchinson – Drums (4, 5, 6, 9, 10)
Andrew Daniels II – Percussion (1, 3, 5, 7, 9, 10)
 
Лог создания рипа
Exact Audio Copy V1.0 beta 3 from 29. August 2011
EAC extraction logfile from 23. June 2013, 14:42
Rodney Whitaker / Children of the Light
Used drive : SlimtypeeNAU508 5 Adapter: 1 ID: 0
Read mode : Secure
Utilize accurate stream : Yes
Defeat audio cache : Yes
Make use of C2 pointers : No
Read offset correction : 6
Overread into Lead-In and Lead-Out : No
Fill up missing offset samples with silence : Yes
Delete leading and trailing silent blocks : No
Null samples used in CRC calculations : Yes
Used interface : Native Win32 interface for Win NT & 2000
Gap handling : Appended to previous track
Used output format : User Defined Encoder
Selected bitrate : 768 kBit/s
Quality : High
Add ID3 tag : No
Command line compressor : C:\Program Files (x86)\Exact Audio Copy\Flac\flac.exe
Additional command line options : -8 -V -T "ARTIST=%artist%" -T "TITLE=%title%" -T "ALBUM=%albumtitle%" -T "DATE=%year%" -T "TRACKNUMBER=%tracknr%" -T "GENRE=%genre%" -T "PERFORMER=%albuminterpret%" -T "COMPOSER=%composer%" %haslyrics%--tag-from-file=LYRICS="%lyricsfile%"%haslyrics% -T "ALBUMARTIST=%albumartist%" -T "DISCNUMBER=%cdnumber%" -T "TOTALDISCS=%totalcds%" -T "TOTALTRACKS=%numtracks%" -T "COMMENT=%comment%" %source% -o %dest%
TOC of the extracted CD
Track | Start | Length | Start sector | End sector
---------------------------------------------------------
1 | 0:00.00 | 6:47.02 | 0 | 30526
2 | 6:47.02 | 4:30.25 | 30527 | 50801
3 | 11:17.27 | 6:06.00 | 50802 | 78251
4 | 17:23.27 | 5:31.58 | 78252 | 103134
5 | 22:55.10 | 5:13.55 | 103135 | 126664
6 | 28:08.65 | 7:25.70 | 126665 | 160109
7 | 35:34.60 | 6:53.35 | 160110 | 191119
8 | 42:28.20 | 5:51.27 | 191120 | 217471
9 | 48:19.47 | 7:00.33 | 217472 | 249004
10 | 55:20.05 | 7:13.60 | 249005 | 281539
11 | 62:33.65 | 7:02.17 | 281540 | 313206
Track 1
Filename C:\EAC rips\01 - Mandela's Muse.wav
Pre-gap length 0:00:02.00
Peak level 99.0 %
Extraction speed 1.2 X
Track quality 99.9 %
Test CRC 4DC7210B
Copy CRC 4DC7210B
Accurately ripped (confidence 3) [4D893807] (AR v1)
Copy OK
Track 2
Filename C:\EAC rips\02 - Broadway.wav
Peak level 98.0 %
Extraction speed 1.4 X
Track quality 100.0 %
Test CRC A0D3F2C5
Copy CRC A0D3F2C5
Accurately ripped (confidence 3) [8D26FC40] (AR v1)
Copy OK
Track 3
Filename C:\EAC rips\03 - One Silent Moment.wav
Peak level 98.2 %
Extraction speed 1.6 X
Track quality 100.0 %
Test CRC 8DBA5176
Copy CRC 8DBA5176
Accurately ripped (confidence 3) [B0481B86] (AR v1)
Copy OK
Track 4
Filename C:\EAC rips\04 - On Green Dolphin Street.wav
Peak level 80.8 %
Extraction speed 1.7 X
Track quality 100.0 %
Test CRC 6D6FE7E8
Copy CRC 6D6FE7E8
Accurately ripped (confidence 3) [FC1F3C6F] (AR v1)
Copy OK
Track 5
Filename C:\EAC rips\05 - Woman Child.wav
Peak level 54.2 %
Extraction speed 1.6 X
Track quality 99.9 %
Test CRC BEAE3BAE
Copy CRC BEAE3BAE
Accurately ripped (confidence 3) [1153BCEA] (AR v1)
Copy OK
Track 6
Filename C:\EAC rips\06 - Mood Swings.wav
Peak level 95.9 %
Extraction speed 2.0 X
Track quality 100.0 %
Test CRC 9ADD3B09
Copy CRC 9ADD3B09
Accurately ripped (confidence 3) [4D56685C] (AR v1)
Copy OK
Track 7
Filename C:\EAC rips\07 - (Queen) Roz.wav
Peak level 84.5 %
Extraction speed 2.1 X
Track quality 100.0 %
Test CRC 51B839AA
Copy CRC 51B839AA
Accurately ripped (confidence 3) [53ABECD6] (AR v1)
Copy OK
Track 8
Filename C:\EAC rips\08 - Clildren of the Light.wav
Peak level 99.5 %
Extraction speed 2.2 X
Track quality 100.0 %
Test CRC 200F0F8F
Copy CRC 200F0F8F
Accurately ripped (confidence 3) [1A76D251] (AR v1)
Copy OK
Track 9
Filename C:\EAC rips\09 - Langman.wav
Peak level 96.3 %
Extraction speed 2.4 X
Track quality 100.0 %
Test CRC 78705111
Copy CRC 78705111
Accurately ripped (confidence 3) [20297949] (AR v1)
Copy OK
Track 10
Filename C:\EAC rips\10 - El Morro.wav
Peak level 95.2 %
Extraction speed 2.5 X
Track quality 100.0 %
Test CRC 22272836
Copy CRC 22272836
Accurately ripped (confidence 3) [4D1AC9A2] (AR v1)
Copy OK
Track 11
Filename C:\EAC rips\11 - Cultural Warrior.wav
Peak level 64.8 %
Extraction speed 2.6 X
Track quality 100.0 %
Test CRC 26B48951
Copy CRC 26B48951
Accurately ripped (confidence 3) [CC139A82] (AR v1)
Copy OK
All tracks accurately ripped
No errors occurred
End of status report
---- CUETools DB Plugin V2.1.4
[CTDB TOCID: HvRijc7outvJkQaa84XfAIs.b.g-] disk not present in database
Submit result: HvRijc7outvJkQaa84XfAIs.b.g- has been uploaded
==== Log checksum C45EA8548A7730142845F910CB16F0632B1C2849A544291594ACA8392222A257 ====
 
Содержание индексной карты (.CUE)
REM GENRE Jazz
REM DATE 1996
REM DISCID 9310500B
REM COMMENT "ExactAudioCopy v1.0b3"
PERFORMER "Rodney Whitaker"
TITLE "Children of the Light"
FILE "01 - Mandela's Muse.wav" WAVE
TRACK 01 AUDIO
TITLE "Mandela's Muse"
PERFORMER "Rodney Whitaker"
INDEX 01 00:00:00
FILE "02 - Broadway.wav" WAVE
TRACK 02 AUDIO
TITLE "Broadway"
PERFORMER "Rodney Whitaker"
INDEX 01 00:00:00
FILE "03 - One Silent Moment.wav" WAVE
TRACK 03 AUDIO
TITLE "One Silent Moment"
PERFORMER "Rodney Whitaker"
INDEX 01 00:00:00
FILE "04 - On Green Dolphin Street.wav" WAVE
TRACK 04 AUDIO
TITLE "On Green Dolphin Street"
PERFORMER "Rodney Whitaker"
INDEX 01 00:00:00
FILE "05 - Woman Child.wav" WAVE
TRACK 05 AUDIO
TITLE "Woman Child"
PERFORMER "Rodney Whitaker"
INDEX 01 00:00:00
FILE "06 - Mood Swings.wav" WAVE
TRACK 06 AUDIO
TITLE "Mood Swings"
PERFORMER "Rodney Whitaker"
INDEX 01 00:00:00
FILE "07 - (Queen) Roz.wav" WAVE
TRACK 07 AUDIO
TITLE "(Queen) Roz"
PERFORMER "Rodney Whitaker"
INDEX 01 00:00:00
FILE "08 - Children of the Light.wav" WAVE
TRACK 08 AUDIO
TITLE "Children of the Light"
PERFORMER "Rodney Whitaker"
INDEX 01 00:00:00
FILE "09 - Langman.wav" WAVE
TRACK 09 AUDIO
TITLE "Langman"
PERFORMER "Rodney Whitaker"
INDEX 01 00:00:00
FILE "10 - El Morro.wav" WAVE
TRACK 10 AUDIO
TITLE "El Morro"
PERFORMER "Rodney Whitaker"
INDEX 01 00:00:00
FILE "11 - Cultural Warrior.wav" WAVE
TRACK 11 AUDIO
TITLE "Cultural Warrior"
PERFORMER "Rodney Whitaker"
INDEX 01 00:00:00
Приватный:
Нет (DHT включён)
Размер:
403.13 Мб (422,711,506 байт) » файлов: 15
Участники:
0 раздают, 0 качают (0 участников всего)
Внешние участники:
3 раздают, 1 качают (4 участников всего) [ Обновить ]
For power users only: no seeders - write to support@pro-jazz.com. Для power user: нет сидеров - пишите на support@pro-jazz.com.
22:44
108
Нет комментариев. Ваш будет первым!