Поиск

(Post-Bop, Contemporary Jazz) [CD] Roy Haynes - Te Vou! - 1994, FLAC (tracks+.cue), lossless

(Post-Bop, Contemporary Jazz) [CD] Roy Haynes - Te Vou! - 1994, FLAC (tracks+.cue), lossless
Треклист:
Roy Haynes - Te Vou!
Жанр: Post-Bop, Contemporary Jazz
Носитель: CD
Год издания: 1994
Издатель (лейбл): Dreyfus
Номер по каталогу: FDM 36569-2
Аудиокодек: FLAC (*.flac)
Тип рипа: tracks+.cue
Битрейт аудио: lossless
Продолжительность: 52:31
Rip by ssagwebster
Наличие сканов в содержимом раздачи: да
Треклист:
01. Like This (5:29)
02. John McKee (6:27)
03. James (4:39)
04. If I Could (8:14)
05. Blues M45 (7:12)
06. Trinkle Twinkle (6:25)
07. Trigonometry (7:19)
08. Good For The Soul (6:45)
Personnel:
Roy Haynes - d
Donald Harrison - as
Pat Metheny - g
David Kikoski - p
Christian McBride - b
 
 
Лог создания рипа
Exact Audio Copy V1.0 beta 3 from 29. August 2011
EAC extraction logfile from 18. April 2013, 12:25
Roy Haynes / Te-Vou!
Used drive : Optiarc DVD RW AD-5200A Adapter: 0 ID: 0
Read mode : Secure
Utilize accurate stream : Yes
Defeat audio cache : Yes
Make use of C2 pointers : No
Read offset correction : 48
Overread into Lead-In and Lead-Out : No
Fill up missing offset samples with silence : Yes
Delete leading and trailing silent blocks : No
Null samples used in CRC calculations : Yes
Used interface : Native Win32 interface for Win NT & 2000
Gap handling : Appended to previous track
Used output format : User Defined Encoder
Selected bitrate : 128 kBit/s
Quality : High
Add ID3 tag : No
Command line compressor : C:\Program Files\Exact Audio Copy\Flac\flac.exe
Additional command line options : -V -8 -T "Genre=%genre%" -T "Artist=%artist%" -T "Title=%title%" -T "Album=%albumtitle%" -T "Date=%year%" -T "Tracknumber=%tracknr%" -T "Comment=%comment%" %source%
TOC of the extracted CD
Track | Start | Length | Start sector | End sector
---------------------------------------------------------
1 | 0:00.32 | 5:29.20 | 32 | 24726
2 | 5:29.52 | 6:27.35 | 24727 | 53786
3 | 11:57.12 | 4:39.00 | 53787 | 74711
4 | 16:36.12 | 8:14.33 | 74712 | 111794
5 | 24:50.45 | 7:12.05 | 111795 | 144199
6 | 32:02.50 | 6:24.70 | 144200 | 173069
7 | 38:27.45 | 7:18.72 | 173070 | 205991
8 | 45:46.42 | 6:44.43 | 205992 | 236334
Track 1
Filename F:\1994.Roy Haynes - Te Vou!\01. Like This.wav
Pre-gap length 0:00:02.32
Peak level 97.7 %
Extraction speed 2.3 X
Track quality 100.0 %
Test CRC 1B4FE9C4
Copy CRC 1B4FE9C4
Accurately ripped (confidence 2) [C2DFED3E] (AR v2)
Copy OK
Track 2
Filename F:\1994.Roy Haynes - Te Vou!\02. John McKee.wav
Pre-gap length 0:00:01.35
Peak level 85.1 %
Extraction speed 2.7 X
Track quality 100.0 %
Test CRC 0B3DE8E8
Copy CRC 0B3DE8E8
Accurately ripped (confidence 2) [A1BE831F] (AR v2)
Copy OK
Track 3
Filename F:\1994.Roy Haynes - Te Vou!\03. James.wav
Pre-gap length 0:00:02.15
Peak level 99.3 %
Extraction speed 2.9 X
Track quality 100.0 %
Test CRC 24E160EF
Copy CRC 24E160EF
Accurately ripped (confidence 2) [8B02E95F] (AR v2)
Copy OK
Track 4
Filename F:\1994.Roy Haynes - Te Vou!\04. If I Could.wav
Pre-gap length 0:00:03.17
Peak level 99.3 %
Extraction speed 3.3 X
Track quality 100.0 %
Test CRC F5F3B74C
Copy CRC F5F3B74C
Accurately ripped (confidence 2) [23A23793] (AR v2)
Copy OK
Track 5
Filename F:\1994.Roy Haynes - Te Vou!\05. Blues M45.wav
Pre-gap length 0:00:02.15
Peak level 95.3 %
Extraction speed 2.7 X
Track quality 99.9 %
Test CRC 1C91211A
Copy CRC 1C91211A
Cannot be verified as accurate (confidence 8) [A5A4F2C2], AccurateRip returned [4E9C62D0] (AR v2)
Copy OK
Track 6
Filename F:\1994.Roy Haynes - Te Vou!\06. Trinkle Twinkle.wav
Pre-gap length 0:00:04.33
Peak level 99.3 %
Extraction speed 3.7 X
Track quality 100.0 %
Test CRC ABDAE632
Copy CRC ABDAE632
Accurately ripped (confidence 2) [7CBD0F5A] (AR v2)
Copy OK
Track 7
Filename F:\1994.Roy Haynes - Te Vou!\07. Trigonometry.wav
Pre-gap length 0:00:02.30
Peak level 99.3 %
Extraction speed 3.7 X
Track quality 100.0 %
Test CRC 6D39F7AE
Copy CRC 6D39F7AE
Accurately ripped (confidence 2) [FCB1FA3B] (AR v2)
Copy OK
Track 8
Filename F:\1994.Roy Haynes - Te Vou!\08. Good For The Soul.wav
Pre-gap length 0:00:03.07
Peak level 99.2 %
Extraction speed 3.7 X
Track quality 100.0 %
Test CRC CB18C96C
Copy CRC CB18C96C
Accurately ripped (confidence 2) [0975E394] (AR v2)
Copy OK
7 трек(и) скопированы точно
1 трек(и) не удалось проверить на точность
Some tracks could not be verified as accurate
No errors occurred
End of status report
==== Log checksum AD8EEEE41A9B47F8DBB7CBFFA5361223FB52D5F148A5FF4C9B7395F620CD6ABB ====
 
Содержание индексной карты (.CUE)
REM GENRE "Contemporary Jazz"
REM DATE 1994
REM DISCID 770C4F08
REM COMMENT "ExactAudioCopy v1.0b3"
PERFORMER "Roy Haynes"
TITLE "Te-Vou!"
FILE "01. Like This.wav" WAVE
TRACK 01 AUDIO
TITLE "Like This"
PERFORMER "Roy Haynes"
ISRC FR14F9400270
PREGAP 00:00:32
INDEX 01 00:00:00
TRACK 02 AUDIO
TITLE "John McKee"
PERFORMER "Roy Haynes"
ISRC FR14F9400280
INDEX 00 05:27:60
FILE "02. John McKee.wav" WAVE
INDEX 01 00:00:00
TRACK 03 AUDIO
TITLE "James"
PERFORMER "Roy Haynes"
ISRC FR14F9400290
INDEX 00 06:25:20
FILE "03. James.wav" WAVE
INDEX 01 00:00:00
TRACK 04 AUDIO
TITLE "If I Could"
PERFORMER "Roy Haynes"
ISRC FR14F9400300
INDEX 00 04:35:58
FILE "04. If I Could.wav" WAVE
INDEX 01 00:00:00
TRACK 05 AUDIO
TITLE "Blues M45"
PERFORMER "Roy Haynes"
ISRC FR14F9400310
INDEX 00 08:12:18
FILE "05. Blues M45.wav" WAVE
INDEX 01 00:00:00
TRACK 06 AUDIO
TITLE "Trinkle Twinkle"
PERFORMER "Roy Haynes"
ISRC FR14F9400320
INDEX 00 07:07:47
FILE "06. Trinkle Twinkle.wav" WAVE
INDEX 01 00:00:00
TRACK 07 AUDIO
TITLE "Trigonometry"
PERFORMER "Roy Haynes"
ISRC FR14F9400330
INDEX 00 06:22:40
FILE "07. Trigonometry.wav" WAVE
INDEX 01 00:00:00
TRACK 08 AUDIO
TITLE "Good For The Soul"
PERFORMER "Roy Haynes"
ISRC FR14F9400340
INDEX 00 07:15:65
FILE "08. Good For The Soul.wav" WAVE
INDEX 01 00:00:00
Приватный:
Нет (DHT включён)
Размер:
299.44 Мб (313,990,366 байт) » файлов: 19
Участники:
0 раздают, 1 качают (1 участников всего)
Внешние участники:
3 раздают, 1 качают (4 участников всего) [ Обновить ]
Скорость:
292.02 Кб/c 0/c
For power users only: no seeders - write to support@pro-jazz.com. Для power user: нет сидеров - пишите на support@pro-jazz.com.
11:54
108
Нет комментариев. Ваш будет первым!