Поиск

(Post-Bop, Contemporary Jazz) [CD] Ray Lema & Laurent De Wilde - Riddles - 2016, FLAC (tracks+.cue), lossless

(Post-Bop, Contemporary Jazz) [CD] Ray Lema & Laurent De Wilde - Riddles - 2016, FLAC (tracks+.cue), lossless
Ray Lema & Laurent De Wilde - Riddles
Жанр: Post-Bop, Contemporary Jazz
Носитель: CD
Страна-производитель диска (релиза): Франция
Год издания: 2016
Издатель (лейбл): Gazebo
Номер по каталогу: GAZ127
Аудиокодек: FLAC (*.flac)
Тип рипа: tracks+.cue
Битрейт аудио: lossless
Продолжительность: 46:44
Источник (релизер): Gpoff
Наличие сканов в содержимом раздачи: нет
Треклист:
01. Intro (Lema-De Wilde) - 1:31
02. Cookies (Lema-De Wilde) - 6:01
03. Fantani (Lema-De Wilde) - 4:30
04. Riddles (Lema-De Wilde) - 4:56
05. Congo Rag (Lema-De Wilde) - 3:43
06. Too Many Keys (Lema-De Wilde) - 2:54
07. The Wizard (Lema-De Wilde) - 5:15
08. Liane et Banian (De Wilde) - 4:46
09. Matongue (Lema) - 5:12
10. Around the World in a Day (Prince-Nelson-Coleman) - 4:11
11. Fantani (Radio Edit) (Lema-De Wilde) - 3:45
Состав:
Ray Lema - piano, humming (#6)
Laurent De Wilde - piano
Recorded at Studio de Meudon, France in May 2016.
 
Лог создания рипа
Exact Audio Copy V1.0 beta 3 from 29. August 2011
EAC extraction logfile from 30. January 2017, 16:59
Ray Lema & Laurent De Wilde / Riddles
Used drive  : TSSTcorpCDDVDW SE-218CB   Adapter: 1  ID: 0
Read mode               : Secure
Utilize accurate stream : Yes
Defeat audio cache      : Yes
Make use of C2 pointers : No
Read offset correction                      : 6
Overread into Lead-In and Lead-Out          : No
Fill up missing offset samples with silence : Yes
Delete leading and trailing silent blocks   : No
Null samples used in CRC calculations       : Yes
Used interface                              : Native Win32 interface for Win NT & 2000
Gap handling                                : Appended to previous track
Used output format              : User Defined Encoder
Selected bitrate                : 1024 kBit/s
Quality                         : High
Add ID3 tag                     : No
Command line compressor         : C:\Program Files (x86)\Exact Audio Copy\Flac\flac.exe
Additional command line options : -8 -V -T "ARTIST=%artist%" -T "TITLE=%title%" -T "ALBUM=%albumtitle%" -T "DATE=%year%" -T "TRACKNUMBER=%tracknr%" -T "GENRE=%genre%" -T "PERFORMER=%albuminterpret%" -T "COMPOSER=%composer%" %haslyrics%--tag-from-file=LYRICS="%lyricsfile%"%haslyrics% -T "ALBUMARTIST=%albumartist%" -T "DISCNUMBER=%cdnumber%" -T "TOTALDISCS=%totalcds%" -T "TOTALTRACKS=%numtracks%" -T "COMMENT=%comment%" %source% -o %dest%
TOC of the extracted CD
     Track |   Start  |  Length  | Start sector | End sector
    ---------------------------------------------------------
        1  |  0:00.00 |  1:31.12 |         0    |     6836
        2  |  1:31.12 |  6:01.21 |      6837    |    33932
        3  |  7:32.33 |  4:30.09 |     33933    |    54191
        4  | 12:02.42 |  4:55.45 |     54192    |    76361
        5  | 16:58.12 |  3:43.19 |     76362    |    93105
        6  | 20:41.31 |  2:53.69 |     93106    |   106149
        7  | 23:35.25 |  5:14.43 |    106150    |   129742
        8  | 28:49.68 |  4:46.18 |    129743    |   151210
        9  | 33:36.11 |  5:12.07 |    151211    |   174617
       10  | 38:48.18 |  4:10.65 |    174618    |   193432
       11  | 42:59.08 |  3:44.51 |    193433    |   210283
Track  1
     Filename C:\EAC\Ray Lema & Laurent De Wilde - Riddles - 2016 - FLAC - CD\01. Intro.wav
     Pre-gap length  0:00:02.00
     Peak level 30.3 %
     Extraction speed 2.0 X
     Track quality 100.0 %
     Test CRC 4D5CDF78
     Copy CRC 4D5CDF78
     Track not present in AccurateRip database
     Copy OK
Track  2
     Filename C:\EAC\Ray Lema & Laurent De Wilde - Riddles - 2016 - FLAC - CD\02. Cookies.wav
     Peak level 98.9 %
     Extraction speed 2.9 X
     Track quality 100.0 %
     Test CRC 1155A71F
     Copy CRC 1155A71F
     Track not present in AccurateRip database
     Copy OK
Track  3
     Filename C:\EAC\Ray Lema & Laurent De Wilde - Riddles - 2016 - FLAC - CD\03. Fantani.wav
     Peak level 98.8 %
     Extraction speed 3.1 X
     Track quality 100.0 %
     Test CRC BE46AD01
     Copy CRC BE46AD01
     Track not present in AccurateRip database
     Copy OK
Track  4
     Filename C:\EAC\Ray Lema & Laurent De Wilde - Riddles - 2016 - FLAC - CD\04. Riddles.wav
     Peak level 98.9 %
     Extraction speed 3.4 X
     Track quality 100.0 %
     Test CRC 4B4AB71E
     Copy CRC 4B4AB71E
     Track not present in AccurateRip database
     Copy OK
Track  5
     Filename C:\EAC\Ray Lema & Laurent De Wilde - Riddles - 2016 - FLAC - CD\05. Congo Rag.wav
     Peak level 98.9 %
     Extraction speed 3.5 X
     Track quality 100.0 %
     Test CRC 8DC8CC66
     Copy CRC 8DC8CC66
     Track not present in AccurateRip database
     Copy OK
Track  6
     Filename C:\EAC\Ray Lema & Laurent De Wilde - Riddles - 2016 - FLAC - CD\06. Too Many Keys.wav
     Peak level 98.9 %
     Extraction speed 2.7 X
     Track quality 99.9 %
     Test CRC 765277CD
     Copy CRC 765277CD
     Track not present in AccurateRip database
     Copy OK
Track  7
     Filename C:\EAC\Ray Lema & Laurent De Wilde - Riddles - 2016 - FLAC - CD\07. The Wizard.wav
     Peak level 98.9 %
     Extraction speed 3.9 X
     Track quality 100.0 %
     Test CRC 2CD6D495
     Copy CRC 2CD6D495
     Track not present in AccurateRip database
     Copy OK
Track  8
     Filename C:\EAC\Ray Lema & Laurent De Wilde - Riddles - 2016 - FLAC - CD\08. Liane Et Banian.wav
     Peak level 79.5 %
     Extraction speed 4.1 X
     Track quality 100.0 %
     Test CRC 63F63C93
     Copy CRC 63F63C93
     Track not present in AccurateRip database
     Copy OK
Track  9
     Filename C:\EAC\Ray Lema & Laurent De Wilde - Riddles - 2016 - FLAC - CD\09. Matongué.wav
     Peak level 98.9 %
     Extraction speed 3.7 X
     Track quality 99.9 %
     Test CRC 31F614AD
     Copy CRC 31F614AD
     Track not present in AccurateRip database
     Copy OK
Track 10
     Filename C:\EAC\Ray Lema & Laurent De Wilde - Riddles - 2016 - FLAC - CD\10. Around The World In A Day.wav
     Peak level 91.9 %
     Extraction speed 4.4 X
     Track quality 100.0 %
     Test CRC 445D85D7
     Copy CRC 445D85D7
     Track not present in AccurateRip database
     Copy OK
Track 11
     Filename C:\EAC\Ray Lema & Laurent De Wilde - Riddles - 2016 - FLAC - CD\11. Fantani (Radio Edit).wav
     Pre-gap length  0:00:14.82
     Peak level 98.8 %
     Extraction speed 4.4 X
     Track quality 100.0 %
     Test CRC F14D0F99
     Copy CRC F14D0F99
     Track not present in AccurateRip database
     Copy OK
None of the tracks are present in the AccurateRip database
No errors occurred
End of status report
==== Log checksum FDB669260B982614242784F0AD47E8BB16F4D4007D34B7858C2119A5DE92F477 ====
 
 
Содержание индексной карты (.CUE)
REM GENRE Jazz
REM DATE 2016
REM DISCID 710AF30B
REM COMMENT "ExactAudioCopy v1.0b3"
PERFORMER "Ray Lema & Laurent De Wilde"
TITLE "Riddles"
FILE "01 - Intro.wav" WAVE
  TRACK 01 AUDIO
    TITLE "Intro"
    PERFORMER "Ray Lema & Laurent De Wilde"
    ISRC FR1R31600570
    INDEX 01 00:00:00
FILE "02 - Cookies.wav" WAVE
  TRACK 02 AUDIO
    TITLE "Cookies"
    PERFORMER "Ray Lema & Laurent De Wilde"
    ISRC FR1R31600580
    INDEX 01 00:00:00
FILE "03 - Fantani.wav" WAVE
  TRACK 03 AUDIO
    TITLE "Fantani"
    PERFORMER "Ray Lema & Laurent De Wilde"
    ISRC FR1R31600590
    INDEX 01 00:00:00
FILE "04 - Riddles.wav" WAVE
  TRACK 04 AUDIO
    TITLE "Riddles"
    PERFORMER "Ray Lema & Laurent De Wilde"
    ISRC FR1R31600600
    INDEX 01 00:00:00
FILE "05 - Congo Rag.wav" WAVE
  TRACK 05 AUDIO
    TITLE "Congo Rag"
    PERFORMER "Ray Lema & Laurent De Wilde"
    ISRC FR1R31600610
    INDEX 01 00:00:00
FILE "06 - Too Many Keys.wav" WAVE
  TRACK 06 AUDIO
    TITLE "Too Many Keys"
    PERFORMER "Ray Lema & Laurent De Wilde"
    ISRC FR1R31600620
    INDEX 01 00:00:00
FILE "07 - The Wizard.wav" WAVE
  TRACK 07 AUDIO
    TITLE "The Wizard"
    PERFORMER "Ray Lema & Laurent De Wilde"
    ISRC FR1R31600630
    INDEX 01 00:00:00
FILE "08 - Liane et Banian.wav" WAVE
  TRACK 08 AUDIO
    TITLE "Liane et Banian"
    PERFORMER "Ray Lema & Laurent De Wilde"
    ISRC FR1R31600640
    INDEX 01 00:00:00
FILE "09 - Matongue.wav" WAVE
  TRACK 09 AUDIO
    TITLE "Matongue"
    PERFORMER "Ray Lema & Laurent De Wilde"
    ISRC FR1R31600650
    INDEX 01 00:00:00
FILE "10 - Around the World in a Day.wav" WAVE
  TRACK 10 AUDIO
    TITLE "Around the World in a Day"
    PERFORMER "Ray Lema & Laurent De Wilde"
    ISRC FR1R31600650
    INDEX 01 00:00:00
  TRACK 11 AUDIO
    TITLE "Fantani (Radio Edit)"
    PERFORMER "Ray Lema & Laurent De Wilde"
    ISRC FR1R31600670
    INDEX 00 03:56:03
FILE "11 - Fantani (Radio Edit).wav" WAVE
    INDEX 01 00:00:00
 
 
Отчет CUETools
[CUETools log; Date: 31.01.2017 2:32:30; Version: 2.1.5]
[CTDB TOCID: SZFV8CQYIjn70SJnnN2C7P37.PU-] found.
Track | CTDB Status
  1   | (10/10) Accurately ripped
  2   | (10/10) Accurately ripped
  3   | (10/10) Accurately ripped
  4   | (10/10) Accurately ripped
  5   | (10/10) Accurately ripped
  6   | (10/10) Accurately ripped
  7   | (10/10) Accurately ripped
  8   | (10/10) Accurately ripped
  9   | (10/10) Accurately ripped
 10   | (10/10) Accurately ripped
 11   | (10/10) Accurately ripped
[AccurateRip ID: 0012c42d-00a4fa1c-710af30b] disk not present in database.
Track Peak [ CRC32  ] [W/O NULL] [  LOG   ]
 --   98,9 [47596B51] [D7EB11FE]
 01   30,3 [4D5CDF78] [C07DDBEE]   CRC32
 02   98,9 [1155A71F] [3FD66460]   CRC32
 03   98,8 [BE46AD01] [B609E2CD]   CRC32
 04   98,9 [4B4AB71E] [B65937F1]   CRC32
 05   98,9 [8DC8CC66] [690C95E0]   CRC32
 06   98,9 [765277CD] [E0C11F4D]   CRC32
 07   98,9 [2CD6D495] [86FB66C8]   CRC32
 08   79,5 [63F63C93] [71064DB5]   CRC32
 09   98,8 [31F614AD] [60B968C0]   CRC32
 10   91,9 [445D85D7] [25B5F856]   CRC32
 11   98,8 [F14D0F99] [A03C1E4A]   CRC32
00:59
445
Нет комментариев. Ваш будет первым!