Поиск

(Post-Bop, Contemporary Jazz) [CD] Alex Riel - Rielatin' - 2000, FLAC (tracks+.cue), lossless

(Post-Bop, Contemporary Jazz) [CD] Alex Riel - Rielatin' - 2000, FLAC (tracks+.cue), lossless
Треклист:
Alex Riel - Rielatin'
Жанр: Post-Bop, Contemporary Jazz
Носитель: CD
Страна-производитель диска (релиза): Дания
Год издания: 2000
Издатель (лейбл): Stunt Records
Номер по каталогу: STUCD 19918
Аудиокодек: FLAC (*.flac)
Тип рипа: tracks+.cue
Битрейт аудио: lossless
Продолжительность: 66:44
Источник (релизер): What.CD
Наличие сканов в содержимом раздачи: нет
Треклист:
01. Did You Call Her Today (Webster) - 7:00
02. Bessie's Blues (Coltrane) - 11:33
03. Committed (Bergonzi) - 7:38
04. Dexterity (Parker) - 8:22
05. In My Own "Sweets" Way (Riel) - 3:58
06. I Fall in Love Too Easily (Cahn-Styne) - 8:21
07. The Bat (Bergonzi) - 8:09
08. High Tops (Bergonzi) - 6:30
09. Lille Empum (Riel-Doky) - 5:13
Состав:
Alex Riel - drums
Kenny Werner - piano
Jerry Bergonzi (#1,3,4,7-9), Michael Brecker (#1,4) - saxophone
Mike Stern - guitar (#2,7,8)
Chris Minh Doky - bass
Recorded at Sound on Sound, New York on October 9-11, 1999.
 
Лог создания рипа
Exact Audio Copy V1.0 beta 2 from 29. April 2011
EAC extraction logfile from 16. June 2011, 23:29
Alex Riel / Rielatin'
Used drive  : Optiarc DVD RW AD-7561A   Adapter: 1  ID: 0
Read mode               : Secure
Utilize accurate stream : Yes
Defeat audio cache      : Yes
Make use of C2 pointers : No
Read offset correction                      : 6
Overread into Lead-In and Lead-Out          : No
Fill up missing offset samples with silence : Yes
Delete leading and trailing silent blocks   : No
Null samples used in CRC calculations       : Yes
Used interface                              : Native Win32 interface for Win NT & 2000
Gap handling                                : Appended to previous track
Used output format              : User Defined Encoder
Selected bitrate                : 1024 kBit/s
Quality                         : High
Add ID3 tag                     : No
Command line compressor         : C:\Program Files (x86)\Exact Audio Copy\Flac\flac.exe
Additional command line options : -V -8 -T "artist=%artist%" -T "title=%title%" -T "album=%albumtitle%" -T "date=%year%" -T "tracknumber=%tracknr%" %source%
TOC of the extracted CD
     Track |   Start  |  Length  | Start sector | End sector
    ---------------------------------------------------------
        1  |  0:00.00 |  6:59.52 |         0    |    31476
        2  |  6:59.52 | 11:33.20 |     31477    |    83471
        3  | 18:32.72 |  7:38.33 |     83472    |   117854
        4  | 26:11.30 |  8:21.62 |    117855    |   155491
        5  | 34:33.17 |  3:57.60 |    155492    |   173326
        6  | 38:31.02 |  8:21.20 |    173327    |   210921
        7  | 46:52.22 |  8:09.15 |    210922    |   247611
        8  | 55:01.37 |  6:29.48 |    247612    |   276834
        9  | 61:31.10 |  5:13.37 |    276835    |   300346
Track  1
     Filename D:\Seeding\Alex Riel - 2000 - Rielatin' {---} [FLAC]\01. Did You Call Her Today.wav
     Pre-gap length  0:00:02.00
     Peak level 100.0 %
     Extraction speed 3.3 X
     Track quality 100.0 %
     Test CRC ACC08914
     Copy CRC ACC08914
     Accurately ripped (confidence 6)  [AD103A5B]  (AR v1)
     Copy OK
Track  2
     Filename D:\Seeding\Alex Riel - 2000 - Rielatin' {---} [FLAC]\02. Bessie's Blues.wav
     Pre-gap length  0:00:03.56
     Peak level 100.0 %
     Extraction speed 4.0 X
     Track quality 100.0 %
     Test CRC CDDC71ED
     Copy CRC CDDC71ED
     Accurately ripped (confidence 7)  [2105F668]  (AR v1)
     Copy OK
Track  3
     Filename D:\Seeding\Alex Riel - 2000 - Rielatin' {---} [FLAC]\03. Committed.wav
     Pre-gap length  0:00:01.56
     Peak level 100.0 %
     Extraction speed 4.5 X
     Track quality 100.0 %
     Test CRC 29D775D1
     Copy CRC 29D775D1
     Accurately ripped (confidence 7)  [5BE21404]  (AR v1)
     Copy OK
Track  4
     Filename D:\Seeding\Alex Riel - 2000 - Rielatin' {---} [FLAC]\04. Dexterity.wav
     Pre-gap length  0:00:02.57
     Peak level 100.0 %
     Extraction speed 4.9 X
     Track quality 100.0 %
     Test CRC AFC13979
     Copy CRC AFC13979
     Accurately ripped (confidence 7)  [7286BEC5]  (AR v1)
     Copy OK
Track  5
     Filename D:\Seeding\Alex Riel - 2000 - Rielatin' {---} [FLAC]\05. In My Own “Sweets” Way.wav
     Pre-gap length  0:00:01.56
     Peak level 100.0 %
     Extraction speed 4.7 X
     Track quality 100.0 %
     Test CRC 1C7CBA3D
     Copy CRC 1C7CBA3D
     Accurately ripped (confidence 7)  [E4779708]  (AR v1)
     Copy OK
Track  6
     Filename D:\Seeding\Alex Riel - 2000 - Rielatin' {---} [FLAC]\06. I Fall in Love too Easily.wav
     Pre-gap length  0:00:02.56
     Peak level 99.9 %
     Extraction speed 5.5 X
     Track quality 100.0 %
     Test CRC B63F3C84
     Copy CRC B63F3C84
     Accurately ripped (confidence 7)  [8F067AF1]  (AR v1)
     Copy OK
Track  7
     Filename D:\Seeding\Alex Riel - 2000 - Rielatin' {---} [FLAC]\07. The Bat.wav
     Pre-gap length  0:00:03.56
     Peak level 100.0 %
     Extraction speed 5.8 X
     Track quality 100.0 %
     Test CRC 60111CEF
     Copy CRC 60111CEF
     Accurately ripped (confidence 7)  [3C624B88]  (AR v1)
     Copy OK
Track  8
     Filename D:\Seeding\Alex Riel - 2000 - Rielatin' {---} [FLAC]\08. High Tops.wav
     Pre-gap length  0:00:04.56
     Peak level 100.0 %
     Extraction speed 6.0 X
     Track quality 100.0 %
     Test CRC 6A189440
     Copy CRC 6A189440
     Accurately ripped (confidence 7)  [FA6741BF]  (AR v1)
     Copy OK
Track  9
     Filename D:\Seeding\Alex Riel - 2000 - Rielatin' {---} [FLAC]\09. Lille empum.wav
     Pre-gap length  0:00:03.57
     Peak level 100.0 %
     Extraction speed 6.0 X
     Track quality 100.0 %
     Test CRC 638D8F3E
     Copy CRC 638D8F3E
     Accurately ripped (confidence 7)  [3369D3CF]  (AR v1)
     Copy OK
All tracks accurately ripped
No errors occurred
End of status report
==== Log checksum DF7BFF3BB6B5BB2F00BA4B136FF5635068E4CD8454D678DCC5461DB73A5CF9F4 ====
 
 
Содержание индексной карты (.CUE)
REM GENRE Jazz
REM DATE 2000
REM DISCID 640FA409
REM COMMENT "ExactAudioCopy v1.0b2"
PERFORMER "Alex Riel"
TITLE "Rielatin'"
FILE "01 - Did You Call Her Today.wav" WAVE
  TRACK 01 AUDIO
    TITLE "Did You Call Her Today"
    PERFORMER "Alex Riel"
    INDEX 01 00:00:00
  TRACK 02 AUDIO
    TITLE "Bessie's Blues"
    PERFORMER "Alex Riel"
    INDEX 00 06:56:10
FILE "02 - Bessie's Blues.wav" WAVE
    INDEX 01 00:00:00
  TRACK 03 AUDIO
    TITLE "Committed"
    PERFORMER "Alex Riel"
    INDEX 00 11:31:53
FILE "03 - Committed.wav" WAVE
    INDEX 01 00:00:00
  TRACK 04 AUDIO
    TITLE "Dexterity"
    PERFORMER "Alex Riel"
    INDEX 00 07:35:65
FILE "04 - Dexterity.wav" WAVE
    INDEX 01 00:00:00
  TRACK 05 AUDIO
    TITLE "In My Own 'Sweets' Way"
    PERFORMER "Alex Riel"
    INDEX 00 08:20:20
FILE "05 - In My Own 'Sweets' Way.wav" WAVE
    INDEX 01 00:00:00
  TRACK 06 AUDIO
    TITLE "I Fall in Love Too Easily"
    PERFORMER "Alex Riel"
    INDEX 00 03:55:18
FILE "06 - I Fall in Love Too Easily.wav" WAVE
    INDEX 01 00:00:00
  TRACK 07 AUDIO
    TITLE "The Bat"
    PERFORMER "Alex Riel"
    INDEX 00 08:17:53
FILE "07 - The Bat.wav" WAVE
    INDEX 01 00:00:00
  TRACK 08 AUDIO
    TITLE "High Tops"
    PERFORMER "Alex Riel"
    INDEX 00 08:04:48
FILE "08 - High Tops.wav" WAVE
    INDEX 01 00:00:00
  TRACK 09 AUDIO
    TITLE "Lille Empum"
    PERFORMER "Alex Riel"
    INDEX 00 06:26:05
FILE "09 - Lille Empum.wav" WAVE
    INDEX 01 00:00:00
 
 
Отчет CUETools
[CUETools log; Date: 25.11.2017 2:47:34; Version: 2.1.5]
[CTDB TOCID: Y.YcF9a.Ab.otd0x0s9I7_8m1no-] found.
Track | CTDB Status
  1   | (7/7) Accurately ripped
  2   | (7/7) Accurately ripped
  3   | (7/7) Accurately ripped
  4   | (7/7) Accurately ripped
  5   | (7/7) Accurately ripped
  6   | (7/7) Accurately ripped
  7   | (7/7) Accurately ripped
  8   | (7/7) Accurately ripped
  9   | (7/7) Accurately ripped
[AccurateRip ID: 00185f9b-00b04ef4-640fa409] found.
Track   [  CRC   |   V2   ] Status
 01     [ad103a5b|c68fcc69] (06+05/11) Accurately ripped
 02     [2105f668|4f8a31e0] (07+05/12) Accurately ripped
 03     [5be21404|27ac0f3a] (07+05/12) Accurately ripped
 04     [7286bec5|af95a7b0] (07+05/12) Accurately ripped
 05     [e4779708|65119f27] (07+05/12) Accurately ripped
 06     [8f067af1|f29d2877] (07+05/12) Accurately ripped
 07     [3c624b88|222b0f32] (07+05/12) Accurately ripped
 08     [fa6741bf|a146d925] (07+05/12) Accurately ripped
 09     [3369d3cf|9c1ce5bb] (07+05/12) Accurately ripped
Track Peak [ CRC32  ] [W/O NULL] [  LOG   ]
 --  100,0 [3D0F498E] [0D13C08E]
 01  100,0 [ACC08914] [2BF134D5]   CRC32
 02  100,0 [CDDC71ED] [4C70AB08]   CRC32
 03  100,0 [29D775D1] [2B1B7A6F]   CRC32
 04  100,0 [AFC13979] [E5DA79F4]   CRC32
 05  100,0 [1C7CBA3D] [B76AC6C1]   CRC32
 06   99,9 [B63F3C84] [E18AD44F]   CRC32
 07  100,0 [60111CEF] [EEE9BDCB]   CRC32
 08  100,0 [6A189440] [96BEC431]   CRC32
 09  100,0 [638D8F3E] [CAF73DF1]   CRC32
 
 
AllMusic Review by Alex Henderson
Mention Copenhagen to an American jazz musician who has spent time there, and you are likely to hear a dissertation on the abundance of jazz resources that the Danish city has to offer. Dexter Gordon and Stan Getz actually lived there, and the list of American improvisers who have recorded in Copenhagen is long and impressive. One Danish musician who has played with his share of American artists is veteran drummer Alex Riel who has backed such heavyweights as Getz, Ben Webster, Sonny Rollins, and Wayne Shorter. Recorded during a visit to New York in 1999, Rielatin' finds Riel leading a team that includes a fellow Dane (bassist Chris Minh Doky) as well as American players Michael Brecker (tenor sax), Jerry Bergonzi (tenor sax), Mike Stern (electric guitar), and Kenny Werner (acoustic piano). Although some of Stern's guitar solos are rock influenced, Rielatin' is essentially a straight-ahead hard bop/post-bop date rather than a fusion date. Nothing terribly surprising occurs, but all of the improvisers are in good form on a hard-swinging CD that ranges from various Bergonzi originals to Charlie Parker's "Dexterity," Ben Webster's "Did You Call Her Today," and the standard "I Fall in Love Too Easily." Brecker really tears into John Coltrane's "Bessie's Blues," which lasts 11 minutes and is the longest track. Rielatin' falls short of essential, but it's a likable disc that never fails to swing.
Download available for power users only.
05:53
188
Нет комментариев. Ваш будет первым!