Поиск

(Post-Bop, Contemporary Jazz, British Jazz) [CD] Theo Travis (feat. Tony Coe, Jeff Clyne, John Marshall) - View From The Edge - 1994, FLAC (tracks+.cue), lossless

(Post-Bop, Contemporary Jazz, British Jazz) [CD] Theo Travis (feat. Tony Coe, Jeff Clyne, John Marshall) - View From The Edge - 1994, FLAC (tracks+.cue), lossless
Треклист:
Theo Travis / View From The Edge
Жанр: Post-Bop, Contemporary Jazz, British Jazz
Носитель: CD
Страна-производитель диска: UK
Год издания: 1994
Издатель (лейбл): 33 Records
Номер по каталогу: 33JAZZ019
Страна исполнителя (группы): UK
Аудиокодек: FLAC (*.flac)
Тип рипа: tracks+.cue
Битрейт аудио: lossless
Продолжительность: 65:03
Источник (релизер): свой фирменный диск
Наличие сканов в содержимом раздачи:
Треклист:
1. Fort Dunlop 10:24
2. Love For Sale 7:16
3. The Ghosts Of Witley Court 5:02
4. Freedom 9:23
5. View From The Edge 4:44
6. Psychogroove 3:51
7. I'm Coming Home 4:40
8. Empathy 7:18
9. The Purple Sky 11:48
 
Лог создания рипа
Exact Audio Copy V1.0 beta 3 from 29. August 2011
EAC extraction logfile from 19. July 2014, 15:46
Theo Travis / View From The Edge
Used drive  : PIONEER DVD-RW  DVR-115D   Adapter: 0  ID: 0
Read mode               : Secure
Utilize accurate stream : Yes
Defeat audio cache      : Yes
Make use of C2 pointers : No
Read offset correction                      : 48
Overread into Lead-In and Lead-Out          : No
Fill up missing offset samples with silence : Yes
Delete leading and trailing silent blocks   : No
Null samples used in CRC calculations       : Yes
Used interface                              : Installed external ASPI interface
Gap handling                                : Appended to previous track
Used output format              : User Defined Encoder
Selected bitrate                : 896 kBit/s
Quality                         : High
Add ID3 tag                     : No
Command line compressor         : C:\Program Files\Exact Audio Copy\FLAC\FLAC.EXE
Additional command line options : -6 -V -T "ARTIST=%artist%" -T "TITLE=%title%" -T "ALBUM=%albumtitle%" -T "DATE=%year%" -T "TRACKNUMBER=%tracknr%" -T "GENRE=%genre%" -T "COMMENT=%comment%" -T "BAND=%albuminterpret%" -T "COMPOSER=%composer%" %haslyrics%--tag-from-file=LYRICS="%lyricsfile%"%haslyrics% -T "DISCNUMBER=%cdnumber%" -T "TOTALDISCS=%totalcds%" -T "TOTALTRACKS=%numtracks%" %hascover%--picture="%coverfile%"%hascover% %source% -o %dest%
TOC of the extracted CD
     Track |   Start  |  Length  | Start sector | End sector
    ---------------------------------------------------------
        1  |  0:00.32 | 10:28.15 |        32    |    47146
        2  | 10:28.47 |  7:20.55 |     47147    |    80201
        3  | 17:49.27 |  5:05.70 |     80202    |   103146
        4  | 22:55.22 |  9:29.50 |    103147    |   145871
        5  | 32:24.72 |  4:43.73 |    145872    |   167169
        6  | 37:08.70 |  3:59.27 |    167170    |   185121
        7  | 41:08.22 |  4:44.33 |    185122    |   206454
        8  | 45:52.55 |  7:22.20 |    206455    |   239624
        9  | 53:15.00 | 11:49.10 |    239625    |   292809
Track  1
     Filename D:\zzz\01 - Fort Dunlop.wav
     Pre-gap length  0:00:02.32
     Peak level 50.0 %
     Extraction speed 5.4 X
     Track quality 100.0 %
     Test CRC B0251F38
     Copy CRC B0251F38
     Accurately ripped (confidence 3)  [4C8C58CF]  (AR v1)
     Copy OK
Track  2
     Filename D:\zzz\02 - Love For Sale.wav
     Pre-gap length  0:00:03.27
     Peak level 63.2 %
     Extraction speed 6.2 X
     Track quality 100.0 %
     Test CRC CF1B3AFC
     Copy CRC CF1B3AFC
     Accurately ripped (confidence 3)  [7850A363]  (AR v1)
     Copy OK
Track  3
     Filename D:\zzz\03 - The Ghosts Of Witley Court.wav
     Pre-gap length  0:00:03.50
     Peak level 87.3 %
     Extraction speed 6.5 X
     Track quality 100.0 %
     Test CRC 6C849659
     Copy CRC 6C849659
     Accurately ripped (confidence 3)  [EB93B280]  (AR v1)
     Copy OK
Track  4
     Filename D:\zzz\04 - Freedom.wav
     Pre-gap length  0:00:02.72
     Peak level 70.8 %
     Extraction speed 6.6 X
     Track quality 99.9 %
     Test CRC 4DE98417
     Copy CRC 4DE98417
     Accurately ripped (confidence 3)  [8CED8B9E]  (AR v1)
     Copy OK
Track  5
     Filename D:\zzz\05 - View From The Edge.wav
     Pre-gap length  0:00:05.35
     Peak level 75.3 %
     Extraction speed 7.4 X
     Track quality 100.0 %
     Test CRC B02AA199
     Copy CRC B02AA199
     Accurately ripped (confidence 3)  [46B64FC8]  (AR v1)
     Copy OK
Track  6
     Filename D:\zzz\06 - Psychogroove.wav
     Peak level 83.2 %
     Extraction speed 6.7 X
     Track quality 99.9 %
     Test CRC 9F4DFE6D
     Copy CRC 9F4DFE6D
     Accurately ripped (confidence 3)  [6A1FCFF5]  (AR v1)
     Copy OK
Track  7
     Filename D:\zzz\07 - I'm Coming Home.wav
     Pre-gap length  0:00:05.00
     Peak level 86.2 %
     Extraction speed 7.9 X
     Track quality 100.0 %
     Test CRC 03253EE9
     Copy CRC 03253EE9
     Accurately ripped (confidence 3)  [3BF61D26]  (AR v1)
     Copy OK
Track  8
     Filename D:\zzz\08 - Empathy.wav
     Pre-gap length  0:00:04.10
     Peak level 97.0 %
     Extraction speed 8.6 X
     Track quality 100.0 %
     Test CRC 015EA0EE
     Copy CRC 015EA0EE
     Accurately ripped (confidence 3)  [4498C8E9]  (AR v1)
     Copy OK
Track  9
     Filename D:\zzz\09 - The Purple Sky.wav
     Pre-gap length  0:00:03.38
     Peak level 98.2 %
     Extraction speed 8.9 X
     Track quality 99.9 %
     Test CRC 1E3BD250
     Copy CRC 1E3BD250
     Accurately ripped (confidence 2)  [B864E600]  (AR v1)
     Copy OK
All tracks accurately ripped
No errors occurred
End of status report
==== Log checksum 34FECF38344E2D7BFFF1E0933C7B77DDA1C5573B01B426C3EB613DC61A3D6C94 ====
 
 
Содержание индексной карты (.CUE)
REM GENRE Post-Bop
REM DATE 1994
REM DISCID 740F4009
REM COMMENT "ExactAudioCopy v1.0b3"
PERFORMER "Theo Travis"
TITLE "View From The Edge"
FILE "01 - Fort Dunlop.wav" WAVE
  TRACK 01 AUDIO
    TITLE "Fort Dunlop"
    PERFORMER "Theo Travis"
    PREGAP 00:00:32
    INDEX 01 00:00:00
  TRACK 02 AUDIO
    TITLE "Love For Sale"
    PERFORMER "Theo Travis"
    INDEX 00 10:24:63
FILE "02 - Love For Sale.wav" WAVE
    INDEX 01 00:00:00
  TRACK 03 AUDIO
    TITLE "The Ghosts Of Witley Court"
    PERFORMER "Theo Travis"
    INDEX 00 07:17:05
FILE "03 - The Ghosts Of Witley Court.wav" WAVE
    INDEX 01 00:00:00
  TRACK 04 AUDIO
    TITLE "Freedom"
    PERFORMER "Theo Travis"
    INDEX 00 05:02:73
FILE "04 - Freedom.wav" WAVE
    INDEX 01 00:00:00
  TRACK 05 AUDIO
    TITLE "View From The Edge"
    PERFORMER "Theo Travis"
    INDEX 00 09:24:15
FILE "05 - View From The Edge.wav" WAVE
    INDEX 01 00:00:00
FILE "06 - Psychogroove.wav" WAVE
  TRACK 06 AUDIO
    TITLE "Psychogroove"
    PERFORMER "Theo Travis"
    INDEX 01 00:00:00
  TRACK 07 AUDIO
    TITLE "I'm Coming Home"
    PERFORMER "Theo Travis"
    INDEX 00 03:54:27
FILE "07 - I'm Coming Home.wav" WAVE
    INDEX 01 00:00:00
  TRACK 08 AUDIO
    TITLE "Empathy"
    PERFORMER "Theo Travis"
    INDEX 00 04:40:23
FILE "08 - Empathy.wav" WAVE
    INDEX 01 00:00:00
  TRACK 09 AUDIO
    TITLE "The Purple Sky"
    PERFORMER "Theo Travis"
    INDEX 00 07:18:57
FILE "09 - The Purple Sky.wav" WAVE
    INDEX 01 00:00:00
 
 
Лог проверки качества
d:\>d:\aucdtect -d/-m0 d:\zzz\*.wav
auCDtect: CD records authenticity detector, version 0.8.2
Copyright (c) 2004 Oleg Berngardt. All rights reserved.
Copyright (c) 2004 Alexander Djourik. All rights reserved.
------------------------------------------------------------
Processing file: [01. Fort Dunlop.wav]
------------------------------------------------------------
This track looks like CDDA with probability 100%
------------------------------------------------------------
Processing file: [02. Love For Sale.wav]
------------------------------------------------------------
This track looks like CDDA with probability 100%
------------------------------------------------------------
Processing file: [03. The Ghosts Of Witley Court.wav]
------------------------------------------------------------
This track looks like CDDA with probability 100%
------------------------------------------------------------
Processing file: [04. Freedom.wav]
------------------------------------------------------------
This track looks like CDDA with probability 100%
------------------------------------------------------------
Processing file: [05. View From The Edge.wav]
------------------------------------------------------------
This track looks like CDDA with probability 100%
------------------------------------------------------------
Processing file: [06. Psychogroove.wav]
------------------------------------------------------------
This track looks like CDDA with probability 100%
------------------------------------------------------------
Processing file: [07. I'm Coming Home.wav]
------------------------------------------------------------
This track looks like CDDA with probability 100%
------------------------------------------------------------
Processing file: [08. Empathy.wav]
------------------------------------------------------------
This track looks like CDDA with probability 100%
------------------------------------------------------------
Processing file: [09. The Purple Sky.wav]
------------------------------------------------------------
This track looks like CDDA with probability 100%
------------------------------------------------------------
Final Conclusion:
------------------------------------------------------------
These tracks looks like CDDA with probability 100%
Доп. информация:
 
 
Album Info & AMG Review
(Theo Travis) - 1,3,4,5,7,8,9
(Cole Porter) - 2
(Theo Travis/Ichiro Tatsuhara) - 6
Recorded June 1994
All tracks recorded at Porcupine Studios and engineered by Nick Taylor
7. & 8. mixed by Nick Taylor at Porcupine Studios
All other tracks mixed by Dave Hunt at DHP
Mastered by Dave Hunt at DHP
Produced and arranged by Theo Travis
Executive producer: Paul Jolly
Photography: Brian J McIlvenny
Cover design: Theo Travis/Dermot Byrne
Liner notes: Theo Travis
View From the Edge is the second trip to the 33Jazz studios for reedman Theo Travis, and the result is auspicious, at least according to U.K. jazz fans and critics who voted it Best British Jazz CD of 1994. With a play list of one standard and eight Travis originals, the album captures events of the times he has experienced and scenes to which he has been exposed in musical form. And the titles of all the selections have meaning; you can hear the relationships between the events and the scenes he depicts in his music, which demonstrates his effectiveness as a composer. The two sections from his "Broad Street Changes" suite are good examples of his capability. Opening with a drum roll, "Fort Dunlop" describes a once vibrant factory that is now closed, and "The Ghosts of Witley Court" portrays a handsome home that was destroyed by fire. In both, one hears what once was -- the vibrancy of a working factory and the stateliness of a British mansion -- contrasted with their current derelict, abandoned states. Rich harmonies compete with stark lines in these two pieces. On the former, David Gordon's piano expresses the feeling of the factory's loss while Travis' sax cries out against the tragedy of it all. "The Ghosts of Witley Court," on the other hand, creates an almost Delius-like pastoral sound of the countryside with Travis' flute and Tony Coe's bass clarinet. "The Purple Sky" has a psychedelic atmosphere appropriate to the richness of the colors created by a sunset. Jeff Clyne's bass is featured on this cut. On the event side of the musical ledger, "Freedom" celebrates the inauguration of Nelson Mandela as president of South Africa. The music captures both the joy and solemnity of the event, again with very expressive tenor work from Travis. Mark Wood on rock-sounding guitar has a major role here, as does Gordon (once again). This album successfully presents modern musical concepts in a manner proving that progressive jazz can be breathtaking without bombarding the ears of the listener with a cacophony of strident sound. This is an album that combines the imaginative with the beautiful, and it is recommended.
 
 
Состав
Theo Travis: tenor saxophone, flute (3)
David Gordon: piano (1,2,3,4,6,7,8,9)
Rob Statham: bass (1,2,3,4,5,6)
Ichiro Tatsuhara: drums (1,2,3,4,5,6), congas (7)
Tony Coe: bass clarinet (3), tenor saxophone (8)
Mark Wood: guitar (4,5,9)
Jeff Clyne: bass (8,9)
John Marshall: drums (8,9)
По всем вопросам пишите личное сообщение пользователю M0p94ok.
10:21
356
Нет комментариев. Ваш будет первым!