Поиск

(Post-Bop, Contemporary Jazz) Aaron Goldberg and Guillermo Klein - Bienestan - 2011, FLAC (tracks+.cue), lossless

(Post-Bop, Contemporary Jazz) Aaron Goldberg and Guillermo Klein - Bienestan - 2011, FLAC (tracks+.cue), lossless
Треклист:
Aaron Goldberg and Guillermo Klein - Bienestan
Жанр: Post-Bop, Contemporary Jazz
Страна-производитель диска: USA
Год издания диска: 2011
Издатель (лейбл): Sunnyside Records
Номер по каталогу: SSC 1245
Страна: USA Boston
Аудиокодек: FLAC (*.flac)
Тип рипа: tracks+.cue
Битрейт аудио: lossless
Продолжительность: 00:56:46
Источник (релизер): shummuhs
Наличие сканов в содержимом раздачи: да

Aaron Goldberg - piano
Guillermo Klein - Fender Rhodes
Matt Penman - acoustic bass
Eric Harland - drums
Miguel Zenon - alto saxophone
Chris Cheek - tenor saxophone, soprano saxophone

01. All The Things You Are [02:12]
02. Implacable [03:01]
03. Moose The Mooche [03:59]
04. Burrito [03:30]
05. Human Feel [04:52]
06. Anita [03:43]
07. Blues For Alice [06:53]
08. Manha de Carnaval (Black Orpheus) [05:09]
09. Airport Fugue [05:13]
10. Manha de Carnaval (Orfeo Negro) [05:21]
11. Yellow Roses [05:47]
12. Impresion de Bienestan [04:34]
13. Amtrack - All The Things You Saw [02:25]

 
Лог создания рипа
Exact Audio Copy V1.0 beta 3 from 29. August 2011
EAC extraction logfile from 17. December 2011, 10:28
Aaron Goldberg And Guillermo Klein / Bienestan
Used drive  : PLEXTOR DVDR   PX-860A   Adapter: 0  ID: 0
Read mode               : Secure
Utilize accurate stream : Yes
Defeat audio cache      : Yes
Make use of C2 pointers : No
Read offset correction                      : 96
Overread into Lead-In and Lead-Out          : No
Fill up missing offset samples with silence : Yes
Delete leading and trailing silent blocks   : No
Null samples used in CRC calculations       : Yes
Used interface                              : Native Win32 interface for Win NT & 2000
Gap handling                                : Appended to previous track
Used output format              : User Defined Encoder
Selected bitrate                : 1024 kBit/s
Quality                         : High
Add ID3 tag                     : No
Command line compressor         : C:\Program Files\Exact Audio Copy 3\Flac\flac.exe
Additional command line options : -8 -V -T "ARTIST=%artist%" -T "TITLE=%title%" -T "ALBUM=%albumtitle%" -T "DATE=%year%" -T "TRACKNUMBER=%tracknr%" -T "TOTALTRACKS=%numtracks%" -T "GENRE=%genre%" -T "ALBUM ARTIST=%albumartist%" -T "ALBUMARTIST=%albumartist%" -T "COMMENT=EAC V1.0 beta 3, Secure Mode, Test & Copy, AccurateRip, FLAC -8" %source%
TOC of the extracted CD
     Track |   Start  |  Length  | Start sector | End sector
    ---------------------------------------------------------
        1  |  0:00.00 |  2:13.57 |         0    |    10031
        2  |  2:13.57 |  3:03.34 |     10032    |    23790
        3  |  5:17.16 |  4:02.14 |     23791    |    41954
        4  |  9:19.30 |  3:34.06 |     41955    |    58010
        5  | 12:53.36 |  4:55.08 |     58011    |    80143
        6  | 17:48.44 |  3:47.00 |     80144    |    97168
        7  | 21:35.44 |  6:57.34 |     97169    |   128477
        8  | 28:33.03 |  5:14.10 |    128478    |   152037
        9  | 33:47.13 |  5:16.29 |    152038    |   175766
       10  | 39:03.42 |  5:24.28 |    175767    |   200094
       11  | 44:27.70 |  5:50.51 |    200095    |   226395
       12  | 50:18.46 |  4:36.08 |    226396    |   247103
       13  | 54:54.54 |  2:25.31 |    247104    |   258009
Track  1
     Filename S:\DL\Aaron Goldberg And Guillermo Klein - Bienestan (2011) [FLAC]\01 - All The Things You Are.wav
     Pre-gap length  0:00:02.00
     Peak level 98.8 %
     Extraction speed 3.1 X
     Track quality 99.9 %
     Test CRC 0D2E9535
     Copy CRC 0D2E9535
     Track not present in AccurateRip database
     Copy OK
Track  2
     Filename S:\DL\Aaron Goldberg And Guillermo Klein - Bienestan (2011) [FLAC]\02 - Implacable.wav
     Pre-gap length  0:00:01.30
     Peak level 98.8 %
     Extraction speed 4.3 X
     Track quality 100.0 %
     Test CRC 4EE1A906
     Copy CRC 4EE1A906
     Track not present in AccurateRip database
     Copy OK
Track  3
     Filename S:\DL\Aaron Goldberg And Guillermo Klein - Bienestan (2011) [FLAC]\03 - Moose The Mooche.wav
     Pre-gap length  0:00:01.50
     Peak level 98.9 %
     Extraction speed 4.9 X
     Track quality 100.0 %
     Test CRC E08B0781
     Copy CRC E08B0781
     Track not present in AccurateRip database
     Copy OK
Track  4
     Filename S:\DL\Aaron Goldberg And Guillermo Klein - Bienestan (2011) [FLAC]\04 - Burrito.wav
     Pre-gap length  0:00:02.65
     Peak level 98.8 %
     Extraction speed 5.2 X
     Track quality 100.0 %
     Test CRC 0A077A5C
     Copy CRC 0A077A5C
     Track not present in AccurateRip database
     Copy OK
Track  5
     Filename S:\DL\Aaron Goldberg And Guillermo Klein - Bienestan (2011) [FLAC]\05 - Human Feel.wav
     Pre-gap length  0:00:03.10
     Peak level 98.9 %
     Extraction speed 5.2 X
     Track quality 99.9 %
     Test CRC 01A8BB8C
     Copy CRC 01A8BB8C
     Track not present in AccurateRip database
     Copy OK
Track  6
     Filename S:\DL\Aaron Goldberg And Guillermo Klein - Bienestan (2011) [FLAC]\06 - Anita.wav
     Pre-gap length  0:00:02.20
     Peak level 98.9 %
     Extraction speed 5.9 X
     Track quality 100.0 %
     Test CRC CF67B722
     Copy CRC CF67B722
     Track not present in AccurateRip database
     Copy OK
Track  7
     Filename S:\DL\Aaron Goldberg And Guillermo Klein - Bienestan (2011) [FLAC]\07 - Blues For Alice.wav
     Pre-gap length  0:00:03.10
     Peak level 98.9 %
     Extraction speed 6.7 X
     Track quality 100.0 %
     Test CRC 511B91F5
     Copy CRC 511B91F5
     Track not present in AccurateRip database
     Copy OK
Track  8
     Filename S:\DL\Aaron Goldberg And Guillermo Klein - Bienestan (2011) [FLAC]\08 - Manha de Carnaval (Black Orpheus).wav
     Pre-gap length  0:00:04.20
     Peak level 98.8 %
     Extraction speed 6.9 X
     Track quality 100.0 %
     Test CRC 055FF345
     Copy CRC 055FF345
     Track not present in AccurateRip database
     Copy OK
Track  9
     Filename S:\DL\Aaron Goldberg And Guillermo Klein - Bienestan (2011) [FLAC]\09 - Airport Fugue.wav
     Pre-gap length  0:00:04.50
     Peak level 98.8 %
     Extraction speed 6.7 X
     Track quality 99.9 %
     Test CRC A561E748
     Copy CRC A561E748
     Track not present in AccurateRip database
     Copy OK
Track 10
     Filename S:\DL\Aaron Goldberg And Guillermo Klein - Bienestan (2011) [FLAC]\10 - Manha de Carnaval (Orfeo Negro).wav
     Pre-gap length  0:00:02.30
     Peak level 98.9 %
     Extraction speed 6.3 X
     Track quality 99.9 %
     Test CRC 0C40295E
     Copy CRC 0C40295E
     Track not present in AccurateRip database
     Copy OK
Track 11
     Filename S:\DL\Aaron Goldberg And Guillermo Klein - Bienestan (2011) [FLAC]\11 - Yellow Roses.wav
     Pre-gap length  0:00:02.45
     Peak level 98.9 %
     Extraction speed 8.0 X
     Track quality 100.0 %
     Test CRC 840B760B
     Copy CRC 840B760B
     Track not present in AccurateRip database
     Copy OK
Track 12
     Filename S:\DL\Aaron Goldberg And Guillermo Klein - Bienestan (2011) [FLAC]\12 - Impresion de Bienestan.wav
     Pre-gap length  0:00:03.20
     Peak level 98.8 %
     Extraction speed 8.0 X
     Track quality 100.0 %
     Test CRC 7BCCB38C
     Copy CRC 7BCCB38C
     Track not present in AccurateRip database
     Copy OK
Track 13
     Filename S:\DL\Aaron Goldberg And Guillermo Klein - Bienestan (2011) [FLAC]\13 - Amtrack - All The Things You Saw.wav
     Pre-gap length  0:00:01.50
     Peak level 98.8 %
     Extraction speed 6.2 X
     Track quality 99.9 %
     Test CRC 1F6CD5A9
     Copy CRC 1F6CD5A9
     Track not present in AccurateRip database
     Copy OK
None of the tracks are present in the AccurateRip database
No errors occurred
End of status report
---- CUETools DB Plugin V2.1.3
[CTDB TOCID: nhfreySFj7PqStHRlkvIRTUL9SM-] disk not present in database, Submit result: database access error: The request was aborted: The request was canceled.
==== Log checksum E1A16C06A92D7C407A03D372EA379D66E01A8CB3778A33C7B53F3E08049D1386 ====
 
 
Содержание индексной карты (.CUE)
REM GENRE Jazz
REM DATE 2011
REM DISCID AB0D700D
REM COMMENT "ExactAudioCopy v1.0b3"
PERFORMER "Aaron Goldberg And Guillermo Klein"
TITLE "Bienestan"
FILE "01 - All The Things You Are.wav" WAVE
  TRACK 01 AUDIO
    TITLE "All The Things You Are"
    PERFORMER "Aaron Goldberg And Guillermo Klein"
    INDEX 01 00:00:00
  TRACK 02 AUDIO
    TITLE "Implacable"
    PERFORMER "Aaron Goldberg And Guillermo Klein"
    INDEX 00 02:12:27
FILE "02 - Implacable.wav" WAVE
    INDEX 01 00:00:00
  TRACK 03 AUDIO
    TITLE "Moose The Mooche"
    PERFORMER "Aaron Goldberg And Guillermo Klein"
    INDEX 00 03:01:59
FILE "03 - Moose The Mooche.wav" WAVE
    INDEX 01 00:00:00
  TRACK 04 AUDIO
    TITLE "Burrito"
    PERFORMER "Aaron Goldberg And Guillermo Klein"
    INDEX 00 03:59:24
FILE "04 - Burrito.wav" WAVE
    INDEX 01 00:00:00
  TRACK 05 AUDIO
    TITLE "Human Feel"
    PERFORMER "Aaron Goldberg And Guillermo Klein"
    INDEX 00 03:30:71
FILE "05 - Human Feel.wav" WAVE
    INDEX 01 00:00:00
  TRACK 06 AUDIO
    TITLE "Anita"
    PERFORMER "Aaron Goldberg And Guillermo Klein"
    INDEX 00 04:52:63
FILE "06 - Anita.wav" WAVE
    INDEX 01 00:00:00
  TRACK 07 AUDIO
    TITLE "Blues For Alice"
    PERFORMER "Aaron Goldberg And Guillermo Klein"
    INDEX 00 03:43:65
FILE "07 - Blues For Alice.wav" WAVE
    INDEX 01 00:00:00
  TRACK 08 AUDIO
    TITLE "Manha de Carnaval (Black Orpheus)"
    PERFORMER "Aaron Goldberg And Guillermo Klein"
    INDEX 00 06:53:14
FILE "08 - Manha de Carnaval (Black Orpheus).wav" WAVE
    INDEX 01 00:00:00
  TRACK 09 AUDIO
    TITLE "Airport Fugue"
    PERFORMER "Aaron Goldberg And Guillermo Klein"
    INDEX 00 05:09:35
FILE "09 - Airport Fugue.wav" WAVE
    INDEX 01 00:00:00
  TRACK 10 AUDIO
    TITLE "Manha de Carnaval (Orfeo Negro)"
    PERFORMER "Aaron Goldberg And Guillermo Klein"
    INDEX 00 05:13:74
FILE "10 - Manha de Carnaval (Orfeo Negro).wav" WAVE
    INDEX 01 00:00:00
  TRACK 11 AUDIO
    TITLE "Yellow Roses"
    PERFORMER "Aaron Goldberg And Guillermo Klein"
    INDEX 00 05:21:58
FILE "11 - Yellow Roses.wav" WAVE
    INDEX 01 00:00:00
  TRACK 12 AUDIO
    TITLE "Impresion de Bienestan"
    PERFORMER "Aaron Goldberg And Guillermo Klein"
    INDEX 00 05:47:31
FILE "12 - Impresion de Bienestan.wav" WAVE
    INDEX 01 00:00:00
  TRACK 13 AUDIO
    TITLE "Amtrack - All The Things You Saw"
    PERFORMER "Aaron Goldberg And Guillermo Klein"
    INDEX 00 04:34:33
FILE "13 - Amtrack - All The Things You Saw.wav" WAVE
    INDEX 01 00:00:00
 
 
Лог проверки качества
-----------------------
DON'T MODIFY THIS FILE
-----------------------
PERFORMER: auCDtect Task Manager, ver. 1.5.1RC6 build 1.5.1.7
Copyright (c) 2008-2010 y-soft. All rights reserved
http://y-soft.org
ANALYZER: auCDtect: CD records authenticity detector, version 0.8.2
Copyright (c) 2004 Oleg Berngardt. All rights reserved.
Copyright (c) 2004 Alexander Djourik. All rights reserved.
FILE: 13 - Amtrack - All The Things You Saw.flac
  Size: 9953504 Hash: D7E13E067E211D7B5797C7FB222E1288 Accuracy: -m0
  Conclusion: CDDA 100%
  Signature: CE1409A2FC68A1691FB9F6192BA01C0A005299C7
FILE: 12 - Impresion de Bienestan.flac
  Size: 24043471 Hash: 45899612E579CB25B0490CBAE95117E3 Accuracy: -m0
  Conclusion: CDDA 100%
  Signature: 9B1A7A72CA190ED4DD383677710FE6356413261F
FILE: 11 - Yellow Roses.flac
  Size: 36676319 Hash: 6F9BD1E59523A6776430FF6AC70E3B2B Accuracy: -m0
  Conclusion: CDDA 100%
  Signature: AAF1228F4C3D15BE2D27E5F6169A91B443EE159E
FILE: 10 - Manha de Carnaval (Orfeo Negro).flac
  Size: 29965256 Hash: DC591126854B39644B2B82705ED66DD5 Accuracy: -m0
  Conclusion: CDDA 99%
  Signature: 75D728DCD05237E4DCF3695C8DEAC0C3398754AB
FILE: 09 - Airport Fugue.flac
  Size: 21475502 Hash: 66A340CB30D2A7CBAA5528B998A68462 Accuracy: -m0
  Conclusion: CDDA 100%
  Signature: D4DA433C97D0342E949C1BB5C75C2377852CE129
FILE: 08 - Manha de Carnaval (Black Orpheus).flac
  Size: 24707647 Hash: BB9DF46502455CDB97AD4840795E965A Accuracy: -m0
  Conclusion: CDDA 100%
  Signature: 1038984FCBBED1F0CFC56B0DC6439F42251F90DE
FILE: 07 - Blues For Alice.flac
  Size: 46542603 Hash: 55B4B819286416699A92F797DD03AF48 Accuracy: -m0
  Conclusion: CDDA 100%
  Signature: 29BE3614C4E383C91E6A9FF7A2DC49ECED808273
FILE: 06 - Anita.flac
  Size: 22981032 Hash: 5500CE85B56A2EE4BD011A13C23AE259 Accuracy: -m0
  Conclusion: CDDA 100%
  Signature: 631D6FB0EA3C48185013BDCE0CB323A5A0B32D32
FILE: 05 - Human Feel.flac
  Size: 34851531 Hash: DA435FD9E42807CDBCF17760A6EDC178 Accuracy: -m0
  Conclusion: CDDA 100%
  Signature: 65994E659C0DE9C8C167ADC2E8FD6042A78708B4
FILE: 04 - Burrito.flac
  Size: 19678076 Hash: 728375456C6768DD4DE9583FB2345E67 Accuracy: -m0
  Conclusion: CDDA 100%
  Signature: C2E548D7E73247472D08B2985C313D720D894252
FILE: 03 - Moose The Mooche.flac
  Size: 27555419 Hash: 00DCB331641D16688731BF4769AB983F Accuracy: -m0
  Conclusion: CDDA 100%
  Signature: FCFACB24E4A27377803EA6747104C74A8703971E
FILE: 02 - Implacable.flac
  Size: 13560183 Hash: 07E59A4408E422309F80FD4298A0F063 Accuracy: -m0
  Conclusion: CDDA 100%
  Signature: 4FEFC45F7776813CF7D931E3A019F9401E79A418
FILE: 01 - All The Things You Are.flac
  Size: 9537730 Hash: BBDAB19A0D85A39F7078CD1E5DB4244E Accuracy: -m0
  Conclusion: CDDA 100%
  Signature: E612E6B61BBC256F9596A24F26C96F3A09039BC0
Download available for power users only.
17:57
430
Нет комментариев. Ваш будет первым!