Вы используете незарегистрированную версию компонента "Вкладки"!

Поиск

(Post-Bop) Charlie Haden, Paul Motian, Geri Allen - Etudes - 1987, APE (image+.cue), lossless

(Post-Bop) Charlie Haden, Paul Motian, Geri Allen - Etudes - 1987, APE (image+.cue), lossless
Треклист:
Charlie Haden, Paul Motian, Geri Allen - Etudes
Жанр: Post-Bop
Год выпуска диска: 1987
Производитель диска: Россия (лицензия)
Аудио кодек: APE
Тип рипа: image+.cue
Битрейт аудио: lossless
Продолжительность: 49:09
Трэклист:
1 Lonely Woman
2 Dolphy's Dance
3 Sandino
4 Fiasco
5 Etude II
6 Blues in Motion
7 Silence
8 Shuffle Montgomery
9 Etude I
Музыканты:
Geri Allen, puiano
Charlie Haden, bass
Paul Motian, drums
 
Отчёт EAC
Exact Audio Copy V0.99 prebeta 4 from 23. January 2008
Отчёт EAC об извлечении, выполненном 11. марта 2009, 15:45
Charlie Haden - Paul Motian - Geri Allen / Etudes
Дисковод: Optiarc DVD RW AD-7200A Adapter: 3 ID: 1
Режим чтения : Достоверность
Использование точного потока : Да
Отключение кэша аудио : Да
Использование указателей C2 : Нет
Коррекция смещения при чтении : 48
Способность читать области Lead-in и Lead-out : Нет
Заполнение пропущенных сэмплов тишиной : Да
Удаление блоков с тишиной в начале и конце : Нет
При вычислениях CRC использовались нулевые сэмплы : Да
Интерфейс : Установленный внешний ASPI-интерфейс
Выходной формат : Внутренние WAV-операции
Формат сэмплов : 44.100 Гц; 16 бит; стерео
TOC извлечённого CD
Трек | Старт | Длительность | Начальный сектор | Конечный сектор
---------------------------------------------------------------------
1 | 0:00.33 | 9:59.00 | 33 | 44957
2 | 9:59.33 | 4:05.00 | 44958 | 63332
3 | 14:04.33 | 4:47.00 | 63333 | 84857
4 | 18:51.33 | 5:43.00 | 84858 | 110582
5 | 24:34.33 | 2:10.00 | 110583 | 120332
6 | 26:44.33 | 7:03.00 | 120333 | 152057
7 | 33:47.33 | 6:40.00 | 152058 | 182057
8 | 40:27.33 | 6:30.00 | 182058 | 211307
9 | 46:57.33 | 2:12.00 | 211308 | 221207
Характеристики диапазона извлечения и сообщения об ошибках
Выбранный диапазон
Имя файла E:\Up-Down\Charlie Haden - Paul Motian - Geri Allen - Etudes\Charlie Haden - Paul Motian - Geri Allen - Etudes.wav
Пиковый уровень 100.0 %
Качество диапазона 100.0 %
CRC копии ED83E8B2
Копирование... OK
Ошибок не произошло
Конец отчёта
 
Tau Analyzer
Any questions - support@pro-jazz.com.
Есть вопросы - support@pro-jazz.com
15:35
229
Нет комментариев. Ваш будет первым!