Поиск

(Post-Bop) [CD] The Pentagon (Cedar Walton, Clifford Jordan, Sam Jones, Billy Higgins, Ray Mantilla) - The Pentagon (1976) - 2015 {UCCJ-9196}, FLAC (tracks+.cue), lossless

(Post-Bop) [CD] The Pentagon (Cedar Walton, Clifford Jordan, Sam Jones, Billy Higgins, Ray Mantilla) - The Pentagon (1976) - 2015 {UCCJ-9196}, FLAC (tracks+.cue), lossless
The Pentagon - The Pentagon (1976) Жанр: Post-Bop
Носитель: CD
Страна-производитель диска (релиза): Japan
Год издания: 2015
Издатель (лейбл): East Wind Music/Universal Japan
Номер по каталогу: UCCJ-9196
Аудиокодек: FLAC (*.flac)
Тип рипа: tracks+.cue
Битрейт аудио: lossless
Продолжительность: 31:56
Rip by ruskaval
Наличие сканов в содержимом раздачи: да
Треклист:
01. Manteca (5:59)
02. Darn That Dream (5:20)
03. Una Mas (5:17)
04. D.B. Blues (4:41)
05. I Can't Get Started (5:42)
06. He Is a Hero (4:58)
Personnel:
Cedar Walton - p
Clifford Jordan - ts
Sam Jones - b
Billy Higgins - d
Ray Mantilla - cga
 
 
Лог создания рипа
Exact Audio Copy V1.0 beta 4 from 7. December 2014
EAC extraction logfile from 17. June 2015, 22:49
The Pentagon / The Pentagon
Used drive  : ATAPI   iHAS124   B   Adapter: 1  ID: 0
Read mode               : Secure
Utilize accurate stream : Yes
Defeat audio cache      : Yes
Make use of C2 pointers : No
Read offset correction                      : 6
Overread into Lead-In and Lead-Out          : No
Fill up missing offset samples with silence : Yes
Delete leading and trailing silent blocks   : No
Null samples used in CRC calculations       : Yes
Used interface                              : Native Win32 interface for Win NT & 2000
Gap handling                                : Appended to previous track
Used output format              : User Defined Encoder
Selected bitrate                : 1024 kBit/s
Quality                         : High
Add ID3 tag                     : No
Command line compressor         : C:\Program Files (x86)\FLAC Frontend\tools\flac.exe
Additional command line options : -8 -V -T "ARTIST=%artist%" -T "TITLE=%title%" -T "ALBUM=%albumtitle%" -T "DATE=%year%" -T "TRACKNUMBER=%tracknr%" -T "TOTALTRACKS=%numtracks%" -T "GENRE=%genre%" -T "ALBUMARTIST=%albumartist%" -T "ALBUM ARTIST=%albumartist%" -T "COMMENT=EAC Secure Mode, Test & Copy, AccurateRip, FLAC -8" %source%
TOC of the extracted CD
     Track |   Start  |  Length  | Start sector | End sector
    ---------------------------------------------------------
        1  |  0:00.00 |  5:58.40 |         0    |    26889
        2  |  5:58.40 |  5:19.60 |     26890    |    50874
        3  | 11:18.25 |  5:17.25 |     50875    |    74674
        4  | 16:35.50 |  4:40.40 |     74675    |    95714
        5  | 21:16.15 |  5:41.72 |     95715    |   121361
        6  | 26:58.12 |  4:58.00 |    121362    |   143711
Track  1
     Filename D:\_EAC\The Pentagon - The Pentagon (1976) [FLAC] {2015 DSD Japan East Wind Masters Collection 1000}\01 - Manteca.wav
     Pre-gap length  0:00:02.00
     Peak level 100.0 %
     Extraction speed 3.2 X
     Track quality 99.9 %
     Test CRC 496C5942
     Copy CRC 496C5942
     Accurately ripped (confidence 2)  [3684A545]  (AR v2)
     Copy OK
Track  2
     Filename D:\_EAC\The Pentagon - The Pentagon (1976) [FLAC] {2015 DSD Japan East Wind Masters Collection 1000}\02 - Darn That Dream.wav
     Pre-gap length  0:00:04.32
     Peak level 79.6 %
     Extraction speed 4.2 X
     Track quality 100.0 %
     Test CRC 3C7F786D
     Copy CRC 3C7F786D
     Accurately ripped (confidence 2)  [B842BAE8]  (AR v2)
     Copy OK
Track  3
     Filename D:\_EAC\The Pentagon - The Pentagon (1976) [FLAC] {2015 DSD Japan East Wind Masters Collection 1000}\03 - Una Mas.wav
     Pre-gap length  0:00:03.60
     Peak level 100.0 %
     Extraction speed 4.6 X
     Track quality 100.0 %
     Test CRC 2DC54440
     Copy CRC 2DC54440
     Accurately ripped (confidence 2)  [8331E4B3]  (AR v2)
     Copy OK
Track  4
     Filename D:\_EAC\The Pentagon - The Pentagon (1976) [FLAC] {2015 DSD Japan East Wind Masters Collection 1000}\04 - D.B. Blues.wav
     Pre-gap length  0:00:03.17
     Peak level 90.1 %
     Extraction speed 4.0 X
     Track quality 99.9 %
     Test CRC 90ECF711
     Copy CRC 90ECF711
     Accurately ripped (confidence 2)  [19825783]  (AR v2)
     Copy OK
Track  5
     Filename D:\_EAC\The Pentagon - The Pentagon (1976) [FLAC] {2015 DSD Japan East Wind Masters Collection 1000}\05 - I Can't Get Started.wav
     Pre-gap length  0:00:03.37
     Peak level 73.7 %
     Extraction speed 4.5 X
     Track quality 99.9 %
     Test CRC C981CB1F
     Copy CRC C981CB1F
     Accurately ripped (confidence 2)  [9225B072]  (AR v2)
     Copy OK
Track  6
     Filename D:\_EAC\The Pentagon - The Pentagon (1976) [FLAC] {2015 DSD Japan East Wind Masters Collection 1000}\06 - He Is a Hero.wav
     Pre-gap length  0:00:06.37
     Peak level 86.9 %
     Extraction speed 5.6 X
     Track quality 100.0 %
     Test CRC 66ECF94E
     Copy CRC 66ECF94E
     Accurately ripped (confidence 2)  [21265F59]  (AR v2)
     Copy OK
All tracks accurately ripped
No errors occurred
End of status report
==== Log checksum E906FB5B6F6FBB8E46678DBA9DE93231F2D9965A55A5DAEA5D921807C625DD32 ====
 
 
Содержание индексной карты (.CUE)
REM GENRE Jazz
REM DATE 1976
REM DISCID 4D077C06
REM COMMENT "ExactAudioCopy v1.0b4"
PERFORMER "The Pentagon"
TITLE "The Pentagon"
FILE "01 - Manteca.wav" WAVE
  TRACK 01 AUDIO
    TITLE "Manteca"
    PERFORMER "The Pentagon"
    INDEX 01 00:00:00
  TRACK 02 AUDIO
    TITLE "Darn That Dream"
    PERFORMER "The Pentagon"
    INDEX 00 05:54:08
FILE "02 - Darn That Dream.wav" WAVE
    INDEX 01 00:00:00
  TRACK 03 AUDIO
    TITLE "Una Mas"
    PERFORMER "The Pentagon"
    INDEX 00 05:16:00
FILE "03 - Una Mas.wav" WAVE
    INDEX 01 00:00:00
  TRACK 04 AUDIO
    TITLE "D.B. Blues"
    PERFORMER "The Pentagon"
    INDEX 00 05:14:08
FILE "04 - D.B. Blues.wav" WAVE
    INDEX 01 00:00:00
  TRACK 05 AUDIO
    TITLE "I Can't Get Started"
    PERFORMER "The Pentagon"
    INDEX 00 04:37:03
FILE "05 - I Can't Get Started.wav" WAVE
    INDEX 01 00:00:00
  TRACK 06 AUDIO
    TITLE "He Is a Hero"
    PERFORMER "The Pentagon"
    INDEX 00 05:35:35
FILE "06 - He Is a Hero.wav" WAVE
    INDEX 01 00:00:00
 
 
CUETools log
[CUETools log; Date: 20.06.2015 8:21:08; Version: 2.0.9]
[CTDB TOCID: pLdSBfcdaVenfkY__EiBYm25gD4-] found.
        [ CTDBID ] Status
        [5e737375] (2/2) Accurately ripped
[AccurateRip ID: 0007d4cd-0029788d-4d077c06] found.
Track   [ CRC    ] Status
 01     [1f0245fc] (2/2) No match but offset
 02     [97a94f86] (2/2) No match but offset
 03     [93808d12] (2/2) No match but offset
 04     [8042a673] (2/2) No match but offset
 05     [9666f1fa] (2/2) No match but offset
 06     [29b66007] (2/2) No match but offset
Track Peak [ CRC32  ] [W/O NULL] [  LOG   ]
 --  100,0 [F029F372] [C49E1966]
 01  100,0 [496C5942] [550EAABD]   CRC32
 02   79,6 [3C7F786D] [3BF45800]   CRC32
 03  100,0 [2DC54440] [BBEF08EF]   CRC32
 04   90,1 [90ECF711] [C65A28D6]   CRC32
 05   73,7 [C981CB1F] [B5751C5D]   CRC32
 06   86,9 [66ECF94E] [CC142592]   CRC32
23:44
845
Нет комментариев. Ваш будет первым!