Поиск

(Post-Bop) [CD] Sam Jones - Seven Minds (1974) - 2015 {UCCJ-9140}, FLAC (tracks+.cue), lossless

(Post-Bop) [CD] Sam Jones - Seven Minds (1974) - 2015 {UCCJ-9140}, FLAC (tracks+.cue), lossless
Sam Jones - Seven Minds (1974) Жанр: Post-Bop
Носитель: CD
Страна-производитель диска (релиза): Japan
Год издания: 2015
Издатель (лейбл): East Wind Music/Universal Japan
Номер по каталогу: UCCJ-9140
Аудиокодек: FLAC (*.flac)
Тип рипа: tracks+.cue
Битрейт аудио: lossless
Продолжительность: 41:57
Rip by ruskaval
Наличие сканов в содержимом раздачи: да
Треклист:
01. Blues For Amos (4:53)
02. Holy Land (6:22)
03. Seven Minds (11:59)
04. I Didn't Know What Time It Was (6:52)
05. Miss, Morgan (5:30)
06. Le Maestro (6:21)
Personnel:
Sam Jones - b
Cedar Walton - p
Billy Higgins - d
Rec.: Victor Studio, Tokyo, Japan, December 21, 1974.
 
 
Лог создания рипа
Exact Audio Copy V1.0 beta 4 from 7. December 2014
EAC extraction logfile from 7. March 2015, 22:32
Sam Jones / Seven Minds
Used drive  : TSSTcorpCDDVDW SE-208DB   Adapter: 1  ID: 1
Read mode               : Secure
Utilize accurate stream : Yes
Defeat audio cache      : Yes
Make use of C2 pointers : No
Read offset correction                      : 6
Overread into Lead-In and Lead-Out          : No
Fill up missing offset samples with silence : Yes
Delete leading and trailing silent blocks   : No
Null samples used in CRC calculations       : Yes
Used interface                              : Native Win32 interface for Win NT & 2000
Gap handling                                : Appended to previous track
Used output format              : User Defined Encoder
Selected bitrate                : 1024 kBit/s
Quality                         : High
Add ID3 tag                     : No
Command line compressor         : C:\Program Files (x86)\FLAC Frontend\tools\flac.exe
Additional command line options : -8 -V -T "ARTIST=%artist%" -T "TITLE=%title%" -T "ALBUM=%albumtitle%" -T "DATE=%year%" -T "TRACKNUMBER=%tracknr%" -T "TOTALTRACKS=%numtracks%" -T "GENRE=%genre%" -T "ALBUMARTIST=%albumartist%" -T "ALBUM ARTIST=%albumartist%" -T "COMMENT=EAC Secure Mode, Test & Copy, AccurateRip, FLAC -8" %source%
TOC of the extracted CD
     Track |   Start  |  Length  | Start sector | End sector
    ---------------------------------------------------------
        1  |  0:00.00 |  4:53.27 |         0    |    22001
        2  |  4:53.27 |  6:21.70 |     22002    |    50646
        3  | 11:15.22 | 11:59.15 |     50647    |   104586
        4  | 23:14.37 |  6:51.73 |    104587    |   135484
        5  | 30:06.35 |  5:30.05 |    135485    |   160239
        6  | 35:36.40 |  6:20.70 |    160240    |   188809
Track  1
     Filename D:\_EAC\Sam Jones - Seven Minds (1974) {2015 DSD Japan East Wind Masters Collection 1000}\01 - Blues For Amos.wav
     Pre-gap length  0:00:02.00
     Peak level 100.0 %
     Extraction speed 2.6 X
     Track quality 100.0 %
     Test CRC 44F0601F
     Copy CRC 44F0601F
     Track not present in AccurateRip database
     Copy OK
Track  2
     Filename D:\_EAC\Sam Jones - Seven Minds (1974) {2015 DSD Japan East Wind Masters Collection 1000}\02 - Holy Land.wav
     Pre-gap length  0:00:04.02
     Peak level 88.8 %
     Extraction speed 3.2 X
     Track quality 100.0 %
     Test CRC 89EF74B4
     Copy CRC 89EF74B4
     Track not present in AccurateRip database
     Copy OK
Track  3
     Filename D:\_EAC\Sam Jones - Seven Minds (1974) {2015 DSD Japan East Wind Masters Collection 1000}\03 - Seven Minds.wav
     Pre-gap length  0:00:03.12
     Peak level 100.0 %
     Extraction speed 3.9 X
     Track quality 100.0 %
     Test CRC E4B86EF8
     Copy CRC E4B86EF8
     Track not present in AccurateRip database
     Copy OK
Track  4
     Filename D:\_EAC\Sam Jones - Seven Minds (1974) {2015 DSD Japan East Wind Masters Collection 1000}\04 - I Didn't Know What Time It Was.wav
     Pre-gap length  0:00:02.52
     Peak level 75.3 %
     Extraction speed 4.3 X
     Track quality 100.0 %
     Test CRC 2CC7608F
     Copy CRC 2CC7608F
     Track not present in AccurateRip database
     Copy OK
Track  5
     Filename D:\_EAC\Sam Jones - Seven Minds (1974) {2015 DSD Japan East Wind Masters Collection 1000}\05 - Miss, Morgan.wav
     Pre-gap length  0:00:03.50
     Peak level 100.0 %
     Extraction speed 4.5 X
     Track quality 100.0 %
     Test CRC 718582C8
     Copy CRC 718582C8
     Track not present in AccurateRip database
     Copy OK
Track  6
     Filename D:\_EAC\Sam Jones - Seven Minds (1974) {2015 DSD Japan East Wind Masters Collection 1000}\06 - Le Maestro.wav
     Pre-gap length  0:00:03.45
     Peak level 97.9 %
     Extraction speed 4.7 X
     Track quality 100.0 %
     Test CRC 688C90CE
     Copy CRC 688C90CE
     Track not present in AccurateRip database
     Copy OK
None of the tracks are present in the AccurateRip database
No errors occurred
End of status report
==== Log checksum 84A5B1AB08A564D01F4A1FF7B15AAF42919E7679F08F802FCACD3D99A5173077 ====
 
 
Содержание индексной карты (.CUE)
REM GENRE Jazz
REM DATE 1974
REM DISCID 5809D506
REM COMMENT "ExactAudioCopy v1.0b4"
PERFORMER "Sam Jones"
TITLE "Seven Minds"
FILE "01 - Blues For Amos.wav" WAVE
  TRACK 01 AUDIO
    TITLE "Blues For Amos"
    PERFORMER "Sam Jones"
    INDEX 01 00:00:00
  TRACK 02 AUDIO
    TITLE "Holy Land"
    PERFORMER "Sam Jones"
    INDEX 00 04:49:25
FILE "02 - Holy Land.wav" WAVE
    INDEX 01 00:00:00
  TRACK 03 AUDIO
    TITLE "Seven Minds"
    PERFORMER "Sam Jones"
    INDEX 00 06:18:58
FILE "03 - Seven Minds.wav" WAVE
    INDEX 01 00:00:00
  TRACK 04 AUDIO
    TITLE "I Didn't Know What Time It Was"
    PERFORMER "Sam Jones"
    INDEX 00 11:56:38
FILE "04 - I Didn't Know What Time It Was.wav" WAVE
    INDEX 01 00:00:00
  TRACK 05 AUDIO
    TITLE "Miss, Morgan"
    PERFORMER "Sam Jones"
    INDEX 00 06:48:23
FILE "05 - Miss, Morgan.wav" WAVE
    INDEX 01 00:00:00
  TRACK 06 AUDIO
    TITLE "Le Maestro"
    PERFORMER "Sam Jones"
    INDEX 00 05:26:35
FILE "06 - Le Maestro.wav" WAVE
    INDEX 01 00:00:00
17:45
614
Нет комментариев. Ваш будет первым!