Поиск

(Post-Bop) [CD] Rein de Graaff Trio with Teddy Edwards, Buck Hill, Von Freeman - Tenor Conclave (1992) - 2015, FLAC (tracks+.cue), lossless

(Post-Bop) [CD] Rein de Graaff Trio with Teddy Edwards, Buck Hill, Von Freeman - Tenor Conclave (1992) - 2015, FLAC (tracks+.cue), lossless
Треклист:
Rein de Graaff Trio with Teddy Edwards, Buck Hill, Von Freeman - Tenor Conclave (1992) Жанр: Post-Bop
Носитель: CD
Страна-производитель диска (релиза): Japan
Год издания: 2015
Издатель (лейбл): Timeless Records/Solid Records Japan/Ultra-Vibe
Номер по каталогу: CDSOL-6367
Аудиокодек: FLAC (*.flac)
Тип рипа: tracks+.cue
Битрейт аудио: lossless
Продолжительность: 63:11
Rip by ruskaval
Наличие сканов в содержимом раздачи: да
Треклист:
01. Perdido / Wahoo (13:45)
02. Old Folks (4:32)
03. Out Of Nowhere (12:11)
04. Loverman (4:39)
05. How High The Moon / Ornithology (11:12)
06. I Can't Get Started (5:26)
07. Red Top (10:40)
08. Final Words (0:46)
Personnel:
Teddy Edwards - tenor sax
Von Freeman - tenor sax
Buck Hill - tenor sax
Rein De Graaff - piano
Koos Serierse - bass
Eric Ineke - drums
Rec.: live at Nick Vollebregt's Jazz Café, Laren, Holland, April 9, 1992.
 
 
Лог создания рипа
Exact Audio Copy V1.1 from 23. June 2015
EAC extraction logfile from 10. June 2016, 22:20
Rein De Graaff Trio / Tenor Conclave
Used drive : HL-DT-STDVDRAM GP50NW41 Adapter: 1 ID: 0
Read mode : Secure
Utilize accurate stream : Yes
Defeat audio cache : Yes
Make use of C2 pointers : No
Read offset correction : 6
Overread into Lead-In and Lead-Out : No
Fill up missing offset samples with silence : Yes
Delete leading and trailing silent blocks : No
Null samples used in CRC calculations : Yes
Used interface : Native Win32 interface for Win NT & 2000
Gap handling : Appended to previous track
Used output format : User Defined Encoder
Selected bitrate : 1024 kBit/s
Quality : High
Add ID3 tag : No
Command line compressor : C:\Program Files (x86)\FLAC Frontend\tools\flac.exe
Additional command line options : -8 -V -T "ARTIST=%artist%" -T "TITLE=%title%" -T "ALBUM=%albumtitle%" -T "DATE=%year%" -T "TRACKNUMBER=%tracknr%" -T "TOTALTRACKS=%numtracks%" -T "GENRE=%genre%" -T "ALBUMARTIST=%albumartist%" -T "ALBUM ARTIST=%albumartist%" -T "COMMENT=EAC Secure Mode, Test & Copy, AccurateRip, FLAC -8" %source%
TOC of the extracted CD
Track | Start | Length | Start sector | End sector
---------------------------------------------------------
1 | 0:00.00 | 13:44.64 | 0 | 61863
2 | 13:44.64 | 4:32.08 | 61864 | 82271
3 | 18:16.72 | 12:11.07 | 82272 | 137103
4 | 30:28.04 | 4:38.65 | 137104 | 158018
5 | 35:06.69 | 11:11.38 | 158019 | 208381
6 | 46:18.32 | 5:26.30 | 208382 | 232861
7 | 51:44.62 | 10:40.10 | 232862 | 280871
8 | 62:24.72 | 0:45.46 | 280872 | 284292
Track 1
Filename D:\_EAC\Rein De Graaff Trio - Tenor Conclave (1992) [FLAC] {CDSOL-6367}\01 - Perdido - Wahoo.wav
Pre-gap length 0:00:02.00
Peak level 97.3 %
Extraction speed 1.4 X
Track quality 100.0 %
Test CRC 47A40A9E
Copy CRC 47A40A9E
Accurately ripped (confidence 1) [C60CE31D] (AR v2)
Copy OK
Track 2
Filename D:\_EAC\Rein De Graaff Trio - Tenor Conclave (1992) [FLAC] {CDSOL-6367}\02 - Old Folks.wav
Peak level 97.3 %
Extraction speed 1.6 X
Track quality 100.0 %
Test CRC EFFBCDA4
Copy CRC EFFBCDA4
Accurately ripped (confidence 1) [3A84A465] (AR v2)
Copy OK
Track 3
Filename D:\_EAC\Rein De Graaff Trio - Tenor Conclave (1992) [FLAC] {CDSOL-6367}\03 - Out Of Nowhere.wav
Peak level 97.3 %
Extraction speed 1.9 X
Track quality 100.0 %
Test CRC 20119707
Copy CRC 20119707
Accurately ripped (confidence 1) [0F646CD6] (AR v2)
Copy OK
Track 4
Filename D:\_EAC\Rein De Graaff Trio - Tenor Conclave (1992) [FLAC] {CDSOL-6367}\04 - Loverman.wav
Peak level 97.3 %
Extraction speed 1.7 X
Track quality 99.9 %
Test CRC 3B844AD3
Copy CRC 3B844AD3
Accurately ripped (confidence 1) [F8EF2B66] (AR v2)
Copy OK
Track 5
Filename D:\_EAC\Rein De Graaff Trio - Tenor Conclave (1992) [FLAC] {CDSOL-6367}\05 - How High The Moon - Ornithology.wav
Peak level 97.3 %
Extraction speed 2.2 X
Track quality 100.0 %
Test CRC FDB3FCB4
Copy CRC FDB3FCB4
Accurately ripped (confidence 1) [FD2C07FE] (AR v2)
Copy OK
Track 6
Filename D:\_EAC\Rein De Graaff Trio - Tenor Conclave (1992) [FLAC] {CDSOL-6367}\06 - I Can't Get Started.wav
Peak level 97.3 %
Extraction speed 2.3 X
Track quality 100.0 %
Test CRC 18E779C0
Copy CRC 18E779C0
Accurately ripped (confidence 1) [5B3DD8A6] (AR v2)
Copy OK
Track 7
Filename D:\_EAC\Rein De Graaff Trio - Tenor Conclave (1992) [FLAC] {CDSOL-6367}\07 - Red Top.wav
Peak level 97.3 %
Extraction speed 2.5 X
Track quality 100.0 %
Test CRC A81665EF
Copy CRC A81665EF
Accurately ripped (confidence 1) [BDD72549] (AR v2)
Copy OK
Track 8
Filename D:\_EAC\Rein De Graaff Trio - Tenor Conclave (1992) [FLAC] {CDSOL-6367}\08 - Final Words.wav
Peak level 95.5 %
Extraction speed 1.5 X
Track quality 100.0 %
Test CRC D8A5D524
Copy CRC D8A5D524
Accurately ripped (confidence 1) [B36A8CB2] (AR v2)
Copy OK
All tracks accurately ripped
No errors occurred
End of status report
==== Log checksum ED3A2A0D8A4E1B2FC147E5408D3D10B793E9D1E34530D9E8E853FC8461A02CA8 ====
 
Содержание индексной карты (.CUE)
REM GENRE Jazz
REM DATE 1992
REM DISCID 6A0ECE08
REM COMMENT "ExactAudioCopy v1.1"
PERFORMER "Rein De Graaff Trio"
TITLE "Tenor Conclave"
FILE "01 - Perdido - Wahoo.wav" WAVE
TRACK 01 AUDIO
TITLE "Perdido / Wahoo"
PERFORMER "Rein De Graaff Trio"
FLAGS DCP
INDEX 01 00:00:00
FILE "02 - Old Folks.wav" WAVE
TRACK 02 AUDIO
TITLE "Old Folks"
PERFORMER "Rein De Graaff Trio"
FLAGS DCP
INDEX 01 00:00:00
FILE "03 - Out Of Nowhere.wav" WAVE
TRACK 03 AUDIO
TITLE "Out Of Nowhere"
PERFORMER "Rein De Graaff Trio"
FLAGS DCP
INDEX 01 00:00:00
FILE "04 - Loverman.wav" WAVE
TRACK 04 AUDIO
TITLE "Loverman"
PERFORMER "Rein De Graaff Trio"
FLAGS DCP
INDEX 01 00:00:00
FILE "05 - How High The Moon - Ornithology.wav" WAVE
TRACK 05 AUDIO
TITLE "How High The Moon / Ornithology"
PERFORMER "Rein De Graaff Trio"
FLAGS DCP
INDEX 01 00:00:00
FILE "06 - I Can't Get Started.wav" WAVE
TRACK 06 AUDIO
TITLE "I Can't Get Started"
PERFORMER "Rein De Graaff Trio"
FLAGS DCP
INDEX 01 00:00:00
FILE "07 - Red Top.wav" WAVE
TRACK 07 AUDIO
TITLE "Red Top"
PERFORMER "Rein De Graaff Trio"
FLAGS DCP
INDEX 01 00:00:00
FILE "08 - Final Words.wav" WAVE
TRACK 08 AUDIO
TITLE "Final Words"
PERFORMER "Rein De Graaff Trio"
FLAGS DCP
INDEX 01 00:00:00
По всем вопросам пишите личное сообщение пользователю M0p94ok.
10:15
374
Нет комментариев. Ваш будет первым!