Поиск

(Post Bop) [CD] Milt Jackson with Hubert Laws - Goodbye - 2017 (1974), FLAC (tracks+.cue), lossless

(Post Bop) [CD] Milt Jackson with Hubert Laws - Goodbye - 2017 (1974), FLAC (tracks+.cue), lossless
Треклист:
Milt Jackson / Goodbye
Жанр: Post Bop
Носитель: CD
Страна-производитель диска (релиза): Japan
Год издания: 2017 (1974)
Издатель (лейбл): CTI
Номер по каталогу: KICJ 2597
Страна исполнителя (группы): usa
Аудиокодек: FLAC (*.flac)
Тип рипа: tracks+.cue
Битрейт аудио: lossless
Продолжительность: 36:46
Источник (релизер): teimuraz67
Наличие сканов в содержимом раздачи: да
Треклист:
01. Detour ahead (08:00)
02. Goodbye (09:22)
03. Old devil moon (05:50)
04. SKJ (06:47)
05. Opus de funk (06:46)
 
Лог создания рипа
Exact Audio Copy V1.0 beta 2 from 29. April 2011
Отчёт EAC об извлечении, выполненном 12. декабря 2017, 13:25
Milt Jackson / Goodbye
Дисковод: ASUS DRW-24D5MT Adapter: 0 ID: 1
Режим чтения : Достоверность
Использование точного потока : Да
Отключение кэша аудио : Да
Использование указателей C2 : Нет
Коррекция смещения при чтении : 6
Способность читать области Lead-in и Lead-out : Нет
Заполнение пропущенных сэмплов тишиной : Да
Удаление блоков с тишиной в начале и конце : Нет
При вычислениях CRC использовались нулевые сэмплы : Да
Интерфейс : Встроенный Win32-интерфейс для Win NT/2000
Обработка зазоров : Добавлено к предыдущему треку
Выходной формат : Пользовательский кодировщик
Выбранный битрейт : 128 kBit/s
Качество : Высокий
Добавление ID3-тега : Нет
Утилита сжатия : C:\Program Files\Exact Audio Copy\FLAC\FLAC.EXE
Дополнительные параметры : -6 -V -T "ARTIST=%artist%" -T "TITLE=%title%" -T "ALBUM=%albumtitle%" -T "DATE=%year%" -T "TRACKNUMBER=%tracknr%" -T "GENRE=%genre%" -T "COMMENT=%comment%" -T "BAND=%albuminterpret%" -T "COMPOSER=%composer%" %haslyrics%--tag-from-
TOC извлечённого CD
Трек | Старт | Длительность | Начальный сектор | Конечный сектор
---------------------------------------------------------------------
1 | 0:00.00 | 8:00.44 | 0 | 36043
2 | 8:00.44 | 9:22.04 | 36044 | 78197
3 | 17:22.48 | 5:50.12 | 78198 | 104459
4 | 23:12.60 | 6:47.34 | 104460 | 135018
5 | 30:00.19 | 6:46.04 | 135019 | 165472
Трек 1
Имя файла D:\FLAC\01 Detour ahead.wav
Длина предзазора 0:00:02.00
Пиковый уровень 99.8 %
Скорость извлечения 4.9 X
Качество трека 100.0 %
CRC теста 9566CE9A
CRC копии 9566CE9A
Копирование... OK
Трек 2
Имя файла D:\FLAC\02 Goodbye.wav
Пиковый уровень 99.8 %
Скорость извлечения 5.6 X
Качество трека 99.9 %
CRC теста 4419F1C1
CRC копии 4419F1C1
Копирование... OK
Трек 3
Имя файла D:\FLAC\03 Old devil moon.wav
Пиковый уровень 99.8 %
Скорость извлечения 6.4 X
Качество трека 100.0 %
CRC теста 7A450308
CRC копии 7A450308
Копирование... OK
Трек 4
Имя файла D:\FLAC\04 SKJ.wav
Пиковый уровень 99.8 %
Скорость извлечения 7.0 X
Качество трека 100.0 %
CRC теста C3D21C60
CRC копии C3D21C60
Копирование... OK
Трек 5
Имя файла D:\FLAC\05 Opus de funk.wav
Пиковый уровень 99.8 %
Скорость извлечения 6.9 X
Качество трека 99.9 %
CRC теста 68FA19E0
CRC копии 68FA19E0
Копирование... OK
Ошибок не произошло
Конец отчёта
---- CUETools DB Plugin V2.1.4
[CTDB TOCID: 4aXMvXbMY3aDTGvzLMA0aO5GSqk-] disk not present in database
Submit result: 4aXMvXbMY3aDTGvzLMA0aO5GSqk- has been uploaded
==== Контрольная сумма отчёта C7BAD0703087322406E796C67E7E6DE7D30A1DA52094B92C8A8329E0168D5A75 ====
 
Содержание индексной карты (.CUE)
REM GENRE Jazz
REM DATE 1973
REM DISCID 35089E05
REM COMMENT "ExactAudioCopy v1.0b2"
PERFORMER "Milt Jackson"
TITLE "Goodbye"
FILE "01 Detour ahead.wav" WAVE
TRACK 01 AUDIO
TITLE "Detour ahead"
PERFORMER "Milt Jackson"
INDEX 01 00:00:00
FILE "02 Goodbye.wav" WAVE
TRACK 02 AUDIO
TITLE "Goodbye"
PERFORMER "Milt Jackson"
INDEX 01 00:00:00
FILE "03 Old devil moon.wav" WAVE
TRACK 03 AUDIO
TITLE "Old devil moon"
PERFORMER "Milt Jackson"
INDEX 01 00:00:00
FILE "04 SKJ.wav" WAVE
TRACK 04 AUDIO
TITLE "SKJ"
PERFORMER "Milt Jackson"
INDEX 01 00:00:00
FILE "05 Opus de funk.wav" WAVE
TRACK 05 AUDIO
TITLE "Opus de funk"
PERFORMER "Milt Jackson"
INDEX 01 00:00:00
Доп. информация: http://www.billboard-japan.com/goods/detail/570114
https://www.discogs.com/Milt-Jackson-With-Hubert-Laws-Goodbye/release/770996
 
Персоналии
Milt Jackson - vibes
Hubert Laws - flute
Herbie Hancock - piano (4)
Cedar Walton - piano
Ron Carter - bass
Billy Cobham - drums (4)
Steve Gadd - drums
Freddie Hubbard - trumper (4)
Приватный:
Нет (DHT включён)
Размер:
207.33 Мб (217,404,454 байт) » файлов: 17
Участники:
0 раздают, 0 качают (0 участников всего)
Внешние участники:
1 раздают, 0 качают (1 участников всего) [ Обновить ]
For power users only: no seeders - write to support@pro-jazz.com. Для power user: нет сидеров - пишите на support@pro-jazz.com.
07:13
156
Нет комментариев. Ваш будет первым!