Вы используете незарегистрированную версию компонента "Вкладки"!

Поиск

(Post-Bop) [CD] Mel Lewis Sextet - Mel Lewis Sextet (1957) - 1996, FLAC (tracks+.cue), lossless

(Post-Bop) [CD] Mel Lewis Sextet - Mel Lewis Sextet (1957) - 1996, FLAC (tracks+.cue), lossless
Треклист:
Mel Lewis Sextet - Mel Lewis Sextet (1957)
Жанр: Post-Bop
Носитель: CD
Год издания: 1996
Издатель (лейбл): V.S.O.P. Records
Номер по каталогу: VSOP #18 CD
Аудиокодек: FLAC (*.flac)
Тип рипа: tracks+.cue
Битрейт аудио: lossless
Продолжительность: 30:37
Источник (релизер): What.cd (damnthenoise)
Наличие сканов в содержимом раздачи: да
Треклист:
01. Brookside (4:21)
02. You Took Advantage Of Me (5:14)
03. Zig Zag (5:06)
04. Jazz Goes To Siwash (4:11)
05. Charlie's Cavern (5:20)
06. Grey Flannel (6:26)
Personnel:
Mel Lewis - d
Jack Sheldon - tp
Charlie Mariano - as, ts
Bill Holman - ts, bars
Marty Paich - p
Buddy Clark - b
 
 
Лог создания рипа
Exact Audio Copy V1.0 beta 3 from 29. August 2011
EAC extraction logfile from 16. June 2015, 16:21
Mel Lewis Sextet / Mel Lewis Sextet
Used drive : ATAPI iHAS324 W Adapter: 0 ID: 0
Read mode : Secure
Utilize accurate stream : Yes
Defeat audio cache : Yes
Make use of C2 pointers : No
Read offset correction : 48
Overread into Lead-In and Lead-Out : No
Fill up missing offset samples with silence : Yes
Delete leading and trailing silent blocks : No
Null samples used in CRC calculations : Yes
Used interface : Native Win32 interface for Win NT & 2000
Gap handling : Appended to previous track
Used output format : User Defined Encoder
Selected bitrate : 1024 kBit/s
Quality : High
Add ID3 tag : No
Command line compressor : C:\Program Files (x86)\Exact Audio Copy\Flac\flac.exe
Additional command line options : -8 -V -T "ARTIST=%artist%" -T "TITLE=%title%" -T "ALBUM=%albumtitle%" -T "DATE=%year%" -T "TRACKNUMBER=%tracknr%" -T "GENRE=%genre%" -T "PERFORMER=%albuminterpret%" -T "COMPOSER=%composer%" %haslyrics%--tag-from-file=LYRICS="%lyricsfile%"%haslyrics% -T "ALBUMARTIST=%albumartist%" -T "DISCNUMBER=%cdnumber%" -T "TOTALDISCS=%totalcds%" -T "TOTALTRACKS=%numtracks%" -T "COMMENT=%comment%" %source% -o %dest%
TOC of the extracted CD
Track | Start | Length | Start sector | End sector
---------------------------------------------------------
1 | 0:00.00 | 4:20.47 | 0 | 19546
2 | 4:20.47 | 5:13.48 | 19547 | 43069
3 | 9:34.20 | 5:05.57 | 43070 | 66001
4 | 14:40.02 | 4:11.23 | 66002 | 84849
5 | 18:51.25 | 5:19.67 | 84850 | 108841
6 | 24:11.17 | 6:25.63 | 108842 | 137779
Track 1
Filename C:\Music\EAC Rips\Mel Lewis Sextet - (1957) [FLAC] {1996 - Mode Records - MODE #103}\01. Brookside.wav
Pre-gap length 0:00:02.00
Peak level 75.2 %
Extraction speed 3.6 X
Track quality 99.9 %
Test CRC 2EECB860
Copy CRC 2EECB860
Accurately ripped (confidence 2) [EC738686] (AR v2)
Copy OK
Track 2
Filename C:\Music\EAC Rips\Mel Lewis Sextet - (1957) [FLAC] {1996 - Mode Records - MODE #103}\02. You Took Advantage of Me.wav
Pre-gap length 0:00:02.32
Peak level 100.0 %
Extraction speed 5.7 X
Track quality 100.0 %
Test CRC DB753014
Copy CRC DB753014
Accurately ripped (confidence 2) [1C8CA205] (AR v2)
Copy OK
Track 3
Filename C:\Music\EAC Rips\Mel Lewis Sextet - (1957) [FLAC] {1996 - Mode Records - MODE #103}\03. Zig Zag.wav
Pre-gap length 0:00:02.18
Peak level 100.0 %
Extraction speed 4.6 X
Track quality 99.9 %
Test CRC 25075E49
Copy CRC 25075E49
Accurately ripped (confidence 2) [71B24D81] (AR v2)
Copy OK
Track 4
Filename C:\Music\EAC Rips\Mel Lewis Sextet - (1957) [FLAC] {1996 - Mode Records - MODE #103}\04. Jazz Goes to Siwash.wav
Pre-gap length 0:00:06.57
Peak level 91.3 %
Extraction speed 4.6 X
Track quality 99.9 %
Test CRC EE063513
Copy CRC EE063513
Accurately ripped (confidence 2) [D38ECFF9] (AR v2)
Copy OK
Track 5
Filename C:\Music\EAC Rips\Mel Lewis Sextet - (1957) [FLAC] {1996 - Mode Records - MODE #103}\05. Charlie´s Cavern.wav
Pre-gap length 0:00:02.10
Peak level 87.2 %
Extraction speed 7.2 X
Track quality 100.0 %
Test CRC 011AB937
Copy CRC 011AB937
Accurately ripped (confidence 2) [813E46BB] (AR v2)
Copy OK
Track 6
Filename C:\Music\EAC Rips\Mel Lewis Sextet - (1957) [FLAC] {1996 - Mode Records - MODE #103}\06. Grey Flannel.wav
Pre-gap length 0:00:03.30
Peak level 84.9 %
Extraction speed 7.8 X
Track quality 100.0 %
Test CRC C25C9171
Copy CRC C25C9171
Accurately ripped (confidence 2) [606D4CF7] (AR v2)
Copy OK
All tracks accurately ripped
No errors occurred
End of status report
---- CUETools DB Plugin V2.1.3
[CTDB TOCID: LyANfDzPo6zPV3CHk6ne0a2G0yQ-] disk not present in database, Submit result: LyANfDzPo6zPV3CHk6ne0a2G0yQ- has been uploaded
==== Log checksum BD645444217C0B88EF9026506F3159D9D0ABA943F14812CC32402E6DFAF6D97A ====
 
Содержание индексной карты (.CUE)
REM GENRE Jazz
REM DATE 1957
REM DISCID 45072D06
REM COMMENT "ExactAudioCopy v1.0b3"
PERFORMER "Mel Lewis Sextet"
TITLE "Mel Lewis Sextet"
FILE "01. Brookside.wav" WAVE
TRACK 01 AUDIO
TITLE "Brookside"
PERFORMER "Mel Lewis Sextet"
INDEX 01 00:00:00
TRACK 02 AUDIO
TITLE "You Took Advantage Of Me"
PERFORMER "Mel Lewis Sextet"
INDEX 00 04:18:15
FILE "02. You Took Advantage Of Me.wav" WAVE
INDEX 01 00:00:00
TRACK 03 AUDIO
TITLE "Zig Zag"
PERFORMER "Mel Lewis Sextet"
INDEX 00 05:11:30
FILE "03. Zig Zag.wav" WAVE
INDEX 01 00:00:00
TRACK 04 AUDIO
TITLE "Jazz Goes To Siwash"
PERFORMER "Mel Lewis Sextet"
INDEX 00 04:59:00
FILE "04. Jazz Goes To Siwash.wav" WAVE
INDEX 01 00:00:00
TRACK 05 AUDIO
TITLE "Charlie's Cavern"
PERFORMER "Mel Lewis Sextet"
INDEX 00 04:09:13
FILE "05. Charlie's Cavern.wav" WAVE
INDEX 01 00:00:00
TRACK 06 AUDIO
TITLE "Grey Flannel"
PERFORMER "Mel Lewis Sextet"
INDEX 00 05:16:37
FILE "06. Grey Flannel.wav" WAVE
INDEX 01 00:00:00
 
CUETools log
[CUETools log; Date: 17.06.2015 22:05:53; Version: 2.0.9]
[CTDB TOCID: LyANfDzPo6zPV3CHk6ne0a2G0yQ-] found.
[ CTDBID ] Status
[68a9681a] (1/1) Accurately ripped
[AccurateRip ID: 0007053b-0025c05b-45072d06] found.
Track [ CRC ] Status
01 [6aa96840] (2/2) No match but offset
02 [be519c5b] (2/2) No match but offset
03 [71afb851] (2/2) No match but offset
04 [534c04ac] (2/2) No match but offset
05 [af7ed968] (2/2) No match but offset
06 [d2c3bad9] (2/2) No match but offset
Track Peak [ CRC32 ] [W/O NULL] [ LOG ]
-- 100,0 [6AE59021] [128BF0F5]
01 75,2 [2EECB860] [361492F0] CRC32
02 100,0 [DB753014] [3B56CF53] CRC32
03 100,0 [25075E49] [4193940B] CRC32
04 91,3 [EE063513] [C81FFD52] CRC32
05 87,2 [011AB937] [AC19673D] CRC32
06 84,9 [C25C9171] [634CBE8C] CRC32
Any questions - support@pro-jazz.com. Есть вопросы - support@pro-jazz.com
23:36
208
Нет комментариев. Ваш будет первым!