Вы используете незарегистрированную версию компонента "Вкладки"!

Поиск

(Post-Bop) [CD] Marc Copland & John Abercrombie ‎ - Speak To Me - 2011, FLAC (tracks+.cue), lossless

(Post-Bop) [CD] Marc Copland & John Abercrombie ‎ - Speak To Me - 2011, FLAC (tracks+.cue), lossless
Битрейт аудио:
lossless
Треклист:
Marc Copland & John Abercrombie ‎ / Speak To Me
Жанр: Post-Bop
Носитель: CD
Страна-производитель диска (релиза): Germany
Год издания: 2011
Издатель (лейбл): Pirouet ‎
Номер по каталогу: PIT3058
Аудиокодек: FLAC (*.flac)
Тип рипа: tracks+.cue
Битрейт аудио: lossless
Продолжительность: 00:58:22
Источник (релизер): локальная сеть
Наличие сканов в содержимом раздачи: да
Треклист:
1 Left Behind
2 Speak To Me
3 Seven
4 If I Should Lose You
5 Blues Connotation
6 So Long
7 Falling Again
8 Talking Blues
9 Witchcraft
 
Лог создания рипа
Exact Audio Copy V1.0 beta 3 from 29. August 2011
EAC extraction logfile from 19. October 2014, 9:03
Marc Copland & John Abercrombie / Speak To Me
Used drive : PHILIPS SPD3400CC Adapter: 0 ID: 0
Read mode : Secure
Utilize accurate stream : Yes
Defeat audio cache : Yes
Make use of C2 pointers : No
Read offset correction : 6
Overread into Lead-In and Lead-Out : No
Fill up missing offset samples with silence : Yes
Delete leading and trailing silent blocks : No
Null samples used in CRC calculations : Yes
Used interface : Native Win32 interface for Win NT & 2000
Gap handling : Appended to previous track
Used output format : User Defined Encoder
Selected bitrate : 1024 kBit/s
Quality : High
Add ID3 tag : No
Command line compressor : C:\Program Files (x86)\Exact Audio Copy\FLAC\FLAC.EXE
Additional command line options : -8 -V -T "ARTIST=%artist%" -T "TITLE=%title%" -T "ALBUM=%albumtitle%" -T "DATE=%year%" -T "TRACKNUMBER=%tracknr%" -T "TOTALTRACKS=%numtracks%" -T "GENRE=%genre%" -T "ALBUM ARTIST=%albumartist%" -T "ALBUMARTIST=%albumartist%" -T "COMMENT=EAC V1.0 beta 3, Secure Mode, Test & Copy, AccurateRip, FLAC -8" %source%
TOC of the extracted CD
Track | Start | Length | Start sector | End sector
---------------------------------------------------------
1 | 0:00.00 | 6:06.03 | 0 | 27452
2 | 6:06.03 | 6:25.65 | 27453 | 56392
3 | 12:31.68 | 4:17.10 | 56393 | 75677
4 | 16:49.03 | 8:02.67 | 75678 | 111894
5 | 24:51.70 | 2:45.14 | 111895 | 124283
6 | 27:37.09 | 6:25.21 | 124284 | 153179
7 | 34:02.30 | 9:52.63 | 153180 | 197642
8 | 43:55.18 | 4:59.54 | 197643 | 220121
9 | 48:54.72 | 9:31.47 | 220122 | 262993
Track 1
Filename C:\Users\Maison\Downloads\Rips\01 - Left Behind.wav
Pre-gap length 0:00:02.00
Peak level 98.8 %
Extraction speed 2.0 X
Track quality 100.0 %
Test CRC 1A54590A
Copy CRC 1A54590A
Accurately ripped (confidence 13) [C692B990] (AR v2)
Copy OK
Track 2
Filename C:\Users\Maison\Downloads\Rips\02 - Speak To Me.wav
Pre-gap length 0:00:02.15
Peak level 98.8 %
Extraction speed 2.3 X
Track quality 100.0 %
Test CRC 8CD2268F
Copy CRC 8CD2268F
Accurately ripped (confidence 13) [21554522] (AR v2)
Copy OK
Track 3
Filename C:\Users\Maison\Downloads\Rips\03 - Seven.wav
Pre-gap length 0:00:03.41
Peak level 70.2 %
Extraction speed 2.5 X
Track quality 100.0 %
Test CRC 161F4C80
Copy CRC 161F4C80
Accurately ripped (confidence 13) [17FACF64] (AR v2)
Copy OK
Track 4
Filename C:\Users\Maison\Downloads\Rips\04 - If I Should Lose You.wav
Pre-gap length 0:00:02.33
Peak level 67.5 %
Extraction speed 2.9 X
Track quality 100.0 %
Test CRC 6F5C14E7
Copy CRC 6F5C14E7
Accurately ripped (confidence 13) [58CB5B9C] (AR v2)
Copy OK
Track 5
Filename C:\Users\Maison\Downloads\Rips\05 - Blues Connotation.wav
Pre-gap length 0:00:02.62
Peak level 98.8 %
Extraction speed 2.7 X
Track quality 100.0 %
Test CRC E0F040BA
Copy CRC E0F040BA
Accurately ripped (confidence 13) [B5E8B7AD] (AR v2)
Copy OK
Track 6
Filename C:\Users\Maison\Downloads\Rips\06 - So Long.wav
Pre-gap length 0:00:01.08
Peak level 98.1 %
Extraction speed 3.2 X
Track quality 100.0 %
Test CRC 3217D9EE
Copy CRC 3217D9EE
Accurately ripped (confidence 13) [411226BB] (AR v2)
Copy OK
Track 7
Filename C:\Users\Maison\Downloads\Rips\07 - Falling Again.wav
Pre-gap length 0:00:03.16
Peak level 81.0 %
Extraction speed 3.5 X
Track quality 100.0 %
Test CRC 183603EA
Copy CRC 183603EA
Accurately ripped (confidence 13) [141DA124] (AR v2)
Copy OK
Track 8
Filename C:\Users\Maison\Downloads\Rips\08 - Talking Blues.wav
Pre-gap length 0:00:02.40
Peak level 80.4 %
Extraction speed 3.6 X
Track quality 100.0 %
Test CRC 16C1EEF1
Copy CRC 16C1EEF1
Accurately ripped (confidence 13) [3AC5F950] (AR v2)
Copy OK
Track 9
Filename C:\Users\Maison\Downloads\Rips\09 - Witchcraft.wav
Pre-gap length 0:00:03.54
Peak level 92.4 %
Extraction speed 4.0 X
Track quality 100.0 %
Test CRC 4F8D611F
Copy CRC 4F8D611F
Accurately ripped (confidence 13) [AF66BB7F] (AR v2)
Copy OK
All tracks accurately ripped
No errors occurred
End of status report
==== Log checksum 6D273C25F4E1FBF8F5DFB406DC5C7AC41B7293DAB621AEB1BD074DD1FE058EEA ====
 
Содержание индексной карты (.CUE)
REM GENRE Jazz
REM DATE 2011
REM DISCID 7B0DB209
REM COMMENT "ExactAudioCopy v1.0b3"
PERFORMER "Marc Copland & John Abercrombie"
TITLE "Speak To Me"
FILE "01 - Left Behind.wav" WAVE
TRACK 01 AUDIO
TITLE "Left Behind"
PERFORMER "Marc Copland & John Abercrombie"
ISRC DEEN41105801
INDEX 01 00:00:00
TRACK 02 AUDIO
TITLE "Speak To Me"
PERFORMER "Marc Copland & John Abercrombie"
ISRC DEEN41105802
INDEX 00 06:03:63
FILE "02 - Speak To Me.wav" WAVE
INDEX 01 00:00:00
TRACK 03 AUDIO
TITLE "Seven"
PERFORMER "Marc Copland & John Abercrombie"
ISRC DEEN41105803
INDEX 00 06:22:24
FILE "03 - Seven.wav" WAVE
INDEX 01 00:00:00
TRACK 04 AUDIO
TITLE "If I Should Lose You"
PERFORMER "Marc Copland & John Abercrombie"
ISRC DEEN41105804
INDEX 00 04:14:52
FILE "04 - If I Should Lose You.wav" WAVE
INDEX 01 00:00:00
TRACK 05 AUDIO
TITLE "Blues Connotation"
PERFORMER "Marc Copland & John Abercrombie"
ISRC DEEN41105805
INDEX 00 08:00:05
FILE "05 - Blues Connotation.wav" WAVE
INDEX 01 00:00:00
TRACK 06 AUDIO
TITLE "So Long"
PERFORMER "Marc Copland & John Abercrombie"
ISRC DEEN41105806
INDEX 00 02:44:06
FILE "06 - So Long.wav" WAVE
INDEX 01 00:00:00
TRACK 07 AUDIO
TITLE "Falling Again"
PERFORMER "Marc Copland & John Abercrombie"
ISRC DEEN41105807
INDEX 00 06:22:05
FILE "07 - Falling Again.wav" WAVE
INDEX 01 00:00:00
TRACK 08 AUDIO
TITLE "Talking Blues"
PERFORMER "Marc Copland & John Abercrombie"
ISRC DEEN41105808
INDEX 00 09:50:23
FILE "08 - Talking Blues.wav" WAVE
INDEX 01 00:00:00
TRACK 09 AUDIO
TITLE "Witchcraft"
PERFORMER "Marc Copland & John Abercrombie"
ISRC DEEN41105809
INDEX 00 04:56:00
FILE "09 - Witchcraft.wav" WAVE
INDEX 01 00:00:00
Any questions - support@pro-jazz.com.
Есть вопросы - support@pro-jazz.com
00:36
207
Нет комментариев. Ваш будет первым!