Вы используете незарегистрированную версию компонента "Вкладки"!

Поиск

(Post-Bop) [CD] John Hicks Trio - I'll Give You Something To Remember Me By… (1987) - 2015 {CDSOL-6405}, FLAC (tracks+.cue), lossless

(Post-Bop) [CD] John Hicks Trio - I'll Give You Something To Remember Me By… (1987) - 2015 {CDSOL-6405}, FLAC (tracks+.cue), lossless
Треклист:
John Hicks Trio - I'll Give You Something To Remember Me By… (1987) Жанр: Post-Bop
Носитель: CD
Страна-производитель диска: Japan
Год издания: 2015
Издатель (лейбл): Timeless Records/Solid Records Japan/Ultra-Vibe
Номер по каталогу: CDSOL-6405
Аудиокодек: FLAC (*.flac)
Тип рипа: tracks+.cue
Битрейт аудио: lossless
Продолжительность: 52:05
Rip by ruskaval
Наличие сканов в содержимом раздачи: да
Треклист:
01. Hold It Down (7:19)
02. Pas De Trois (8:53)
03. Monk's Mood (2:55)
04. I Didn't Know What Time It Was (4:37)
05. Airegin (6:06)
06. My Foolish Heart (5:20)
07. Blue In Green (5:03)
08. Coral Keys (4:43)
09. Ted's Delight (7:08)
Personnel:
John Hicks - piano
Curtis Lundy - bass
Idris Muhammad - drums
Rec.: Studio 44, Monster, The Netherlands, March 12, 1987.
 
 
Лог создания рипа
Exact Audio Copy V1.1 from 23. June 2015
EAC extraction logfile from 7. November 2016, 6:23
John Hicks Trio / I'll Give You Something To Remember Me By...
Used drive : HL-DT-STDVDRAM GP50NW41 Adapter: 1 ID: 0
Read mode : Secure
Utilize accurate stream : Yes
Defeat audio cache : Yes
Make use of C2 pointers : No
Read offset correction : 6
Overread into Lead-In and Lead-Out : No
Fill up missing offset samples with silence : Yes
Delete leading and trailing silent blocks : No
Null samples used in CRC calculations : Yes
Used interface : Native Win32 interface for Win NT & 2000
Gap handling : Appended to previous track
Used output format : User Defined Encoder
Selected bitrate : 1024 kBit/s
Quality : High
Add ID3 tag : No
Command line compressor : C:\Program Files (x86)\FLAC Frontend\tools\flac.exe
Additional command line options : -8 -V -T "ARTIST=%artist%" -T "TITLE=%title%" -T "ALBUM=%albumtitle%" -T "DATE=%year%" -T "TRACKNUMBER=%tracknr%" -T "TOTALTRACKS=%numtracks%" -T "GENRE=%genre%" -T "ALBUMARTIST=%albumartist%" -T "ALBUM ARTIST=%albumartist%" -T "COMMENT=EAC Secure Mode, Test & Copy, AccurateRip, FLAC -8" %source%
TOC of the extracted CD
Track | Start | Length | Start sector | End sector
---------------------------------------------------------
1 | 0:00.00 | 7:18.50 | 0 | 32899
2 | 7:18.50 | 8:53.15 | 32900 | 72889
3 | 16:11.65 | 2:55.00 | 72890 | 86014
4 | 19:06.65 | 4:37.02 | 86015 | 106791
5 | 23:43.67 | 6:06.15 | 106792 | 134256
6 | 29:50.07 | 5:20.18 | 134257 | 158274
7 | 35:10.25 | 5:03.30 | 158275 | 181029
8 | 40:13.55 | 4:42.65 | 181030 | 202244
9 | 44:56.45 | 7:07.73 | 202245 | 234342
Track 1
Filename D:\_EAC\John Hicks Trio - I'll Give You Something To Remember Me By... (1987) [FLAC] {CDSOL-6405}\01 - Hold It Down.wav
Pre-gap length 0:00:02.00
Peak level 100.0 %
Extraction speed 3.0 X
Track quality 100.0 %
Test CRC 7B2216D6
Copy CRC 7B2216D6
Accurately ripped (confidence 1) [142A1684] (AR v2)
Copy OK
Track 2
Filename D:\_EAC\John Hicks Trio - I'll Give You Something To Remember Me By... (1987) [FLAC] {CDSOL-6405}\02 - Pas De Trois.wav
Pre-gap length 0:00:01.05
Peak level 100.0 %
Extraction speed 3.3 X
Track quality 99.9 %
Test CRC 9500CCCD
Copy CRC 9500CCCD
Accurately ripped (confidence 1) [D5FFD08A] (AR v2)
Copy OK
Track 3
Filename D:\_EAC\John Hicks Trio - I'll Give You Something To Remember Me By... (1987) [FLAC] {CDSOL-6405}\03 - Monk's Mood.wav
Pre-gap length 0:00:00.67
Peak level 85.5 %
Extraction speed 3.5 X
Track quality 100.0 %
Test CRC F22E422F
Copy CRC F22E422F
Accurately ripped (confidence 1) [9DCB3365] (AR v2)
Copy OK
Track 4
Filename D:\_EAC\John Hicks Trio - I'll Give You Something To Remember Me By... (1987) [FLAC] {CDSOL-6405}\04 - I Didn't Know What Time It Was.wav
Pre-gap length 0:00:00.60
Peak level 100.0 %
Extraction speed 4.0 X
Track quality 100.0 %
Test CRC 1271E732
Copy CRC 1271E732
Accurately ripped (confidence 1) [EE1A2998] (AR v2)
Copy OK
Track 5
Filename D:\_EAC\John Hicks Trio - I'll Give You Something To Remember Me By... (1987) [FLAC] {CDSOL-6405}\05 - Airegin.wav
Pre-gap length 0:00:00.74
Peak level 100.0 %
Extraction speed 3.8 X
Track quality 99.9 %
Test CRC AFD4AF07
Copy CRC AFD4AF07
Accurately ripped (confidence 1) [345A8ACC] (AR v2)
Copy OK
Track 6
Filename D:\_EAC\John Hicks Trio - I'll Give You Something To Remember Me By... (1987) [FLAC] {CDSOL-6405}\06 - My Foolish Heart.wav
Pre-gap length 0:00:00.67
Peak level 100.0 %
Extraction speed 4.6 X
Track quality 100.0 %
Test CRC B3D07087
Copy CRC B3D07087
Accurately ripped (confidence 1) [1477393B] (AR v2)
Copy OK
Track 7
Filename D:\_EAC\John Hicks Trio - I'll Give You Something To Remember Me By... (1987) [FLAC] {CDSOL-6405}\07 - Blue In Green.wav
Pre-gap length 0:00:01.07
Peak level 100.0 %
Extraction speed 4.8 X
Track quality 100.0 %
Test CRC 26C4F8F3
Copy CRC 26C4F8F3
Accurately ripped (confidence 1) [CC24D814] (AR v2)
Copy OK
Track 8
Filename D:\_EAC\John Hicks Trio - I'll Give You Something To Remember Me By... (1987) [FLAC] {CDSOL-6405}\08 - Coral Keys.wav
Pre-gap length 0:00:01.00
Peak level 98.1 %
Extraction speed 4.0 X
Track quality 99.9 %
Test CRC A239C9E1
Copy CRC A239C9E1
Accurately ripped (confidence 1) [423E0D21] (AR v2)
Copy OK
Track 9
Filename D:\_EAC\John Hicks Trio - I'll Give You Something To Remember Me By... (1987) [FLAC] {CDSOL-6405}\09 - Ted's Delight.wav
Pre-gap length 0:00:00.65
Peak level 95.3 %
Extraction speed 4.6 X
Track quality 99.9 %
Test CRC 9542B282
Copy CRC 9542B282
Accurately ripped (confidence 1) [8A24D399] (AR v2)
Copy OK
All tracks accurately ripped
No errors occurred
End of status report
==== Log checksum 4DA9E7C1CFF15D0FC981291DE9BD7E212066EA7329BA16CF6BCD9FAC29A286D9 ====
 
Содержание индексной карты (.CUE)
REM GENRE Jazz
REM DATE 1987
REM DISCID 750C3409
REM COMMENT "ExactAudioCopy v1.1"
PERFORMER "John Hicks Trio"
TITLE "I'll Give You Something To Remember Me By..."
FILE "01 - Hold It Down.wav" WAVE
TRACK 01 AUDIO
TITLE "Hold It Down"
PERFORMER "John Hicks Trio"
INDEX 01 00:00:00
TRACK 02 AUDIO
TITLE "Pas De Trois"
PERFORMER "John Hicks Trio"
INDEX 00 07:17:45
FILE "02 - Pas De Trois.wav" WAVE
INDEX 01 00:00:00
TRACK 03 AUDIO
TITLE "Monk's Mood"
PERFORMER "John Hicks Trio"
INDEX 00 08:52:23
FILE "03 - Monk's Mood.wav" WAVE
INDEX 01 00:00:00
TRACK 04 AUDIO
TITLE "I Didn't Know What Time It Was"
PERFORMER "John Hicks Trio"
INDEX 00 02:54:15
FILE "04 - I Didn't Know What Time It Was.wav" WAVE
INDEX 01 00:00:00
TRACK 05 AUDIO
TITLE "Airegin"
PERFORMER "John Hicks Trio"
INDEX 00 04:36:03
FILE "05 - Airegin.wav" WAVE
INDEX 01 00:00:00
TRACK 06 AUDIO
TITLE "My Foolish Heart"
PERFORMER "John Hicks Trio"
INDEX 00 06:05:23
FILE "06 - My Foolish Heart.wav" WAVE
INDEX 01 00:00:00
TRACK 07 AUDIO
TITLE "Blue In Green"
PERFORMER "John Hicks Trio"
INDEX 00 05:19:11
FILE "07 - Blue In Green.wav" WAVE
INDEX 01 00:00:00
TRACK 08 AUDIO
TITLE "Coral Keys"
PERFORMER "John Hicks Trio"
INDEX 00 05:02:30
FILE "08 - Coral Keys.wav" WAVE
INDEX 01 00:00:00
TRACK 09 AUDIO
TITLE "Ted's Delight"
PERFORMER "John Hicks Trio"
INDEX 00 04:42:00
FILE "09 - Ted's Delight.wav" WAVE
INDEX 01 00:00:00
 
Об альбоме (сборнике)
Reissue with the latest remastering and the original cover artwork. Comes with a description written in Japanese. John Hicks works in some really wonderful company here – a trio with bassist Curtis Lundy and drummer Idris Muhammad – both of whom really add a lot to the date! We're always big fans of Lundy's sound on bass – and his approach here has the same warm-rolling quality you'd find in his own best 80s work – really helping to push Hicks' lyrical agenda on the piano with a rhythmic support that's tremendous. Muhammad's pretty great too – definitely on the understated side of his talents, that nicely subtle sound he developed in the 80s – and Hicks, as always, is more than a cut above most of his contemporaries, and continues a long legacy of extremely soulful work on the keys of the piano.
Any questions - support@pro-jazz.com.
Есть вопросы - support@pro-jazz.com
22:57
239
Нет комментариев. Ваш будет первым!