Поиск

(Post-Bop) [CD] Harold Ashby - On The Sunny Side Of The Street (1992) - 2015 {CDSOL-6376}, FLAC (tracks+.cue), lossless

(Post-Bop) [CD] Harold Ashby - On The Sunny Side Of The Street (1992) - 2015 {CDSOL-6376}, FLAC (tracks+.cue), lossless
Треклист:
Harold Ashby - On The Sunny Side Of The Street (1992) Жанр: Post-Bop
Носитель: CD
Страна-производитель диска: Japan
Год издания: 2015
Издатель (лейбл): Timeless Records/Solid Records Japan/Ultra-Vibe
Номер по каталогу: CDSOL-6376
Аудиокодек: FLAC (*.flac)
Тип рипа: tracks+.cue
Битрейт аудио: lossless
Продолжительность: 66:17
Rip by ruskaval
Наличие сканов в содержимом раздачи: да
Треклист:
01. Out Of Nowhere (5:14)
02. There Is No Greater Love (4:43)
03. Honeysuckle Rose (5:08)
04. Pennies From Heaven (5:03)
05. It's The Talk Of The Town (5:58)
06. Satin Doll (5:48)
07. These Foolish Things (Remind Me Of You) (5:37)
08. On The Sunny Side Of The Street (6:09)
09. Scufflin' (8:33)
10. In My Solitude (7:45)
11. Just Squeeze Me (6:20)
Personnel:
Harold Ashby - tenor saxophone
Horace Parlan - piano
Wayne Dockery - bass
Steve McRaven - drums
Rec.: Studio 44, Monster, Holland, January 12, 1992.
 
 
Лог создания рипа
Exact Audio Copy V1.1 from 23. June 2015
EAC extraction logfile from 5. July 2016, 10:06
Harold Ashby / On The Sunny Side Of The Street
Used drive  : HL-DT-STDVDRAM GP50NW41   Adapter: 1  ID: 0
Read mode               : Secure
Utilize accurate stream : Yes
Defeat audio cache      : Yes
Make use of C2 pointers : No
Read offset correction                      : 6
Overread into Lead-In and Lead-Out          : No
Fill up missing offset samples with silence : Yes
Delete leading and trailing silent blocks   : No
Null samples used in CRC calculations       : Yes
Used interface                              : Native Win32 interface for Win NT & 2000
Gap handling                                : Appended to previous track
Used output format              : User Defined Encoder
Selected bitrate                : 1024 kBit/s
Quality                         : High
Add ID3 tag                     : No
Command line compressor         : C:\Program Files (x86)\FLAC Frontend\tools\flac.exe
Additional command line options : -8 -V -T "ARTIST=%artist%" -T "TITLE=%title%" -T "ALBUM=%albumtitle%" -T "DATE=%year%" -T "TRACKNUMBER=%tracknr%" -T "TOTALTRACKS=%numtracks%" -T "GENRE=%genre%" -T "ALBUMARTIST=%albumartist%" -T "ALBUM ARTIST=%albumartist%" -T "COMMENT=EAC Secure Mode, Test & Copy, AccurateRip, FLAC -8" %source%
TOC of the extracted CD
     Track |   Start  |  Length  | Start sector | End sector
    ---------------------------------------------------------
        1  |  0:00.00 |  5:13.70 |         0    |    23544
        2  |  5:13.70 |  4:42.60 |     23545    |    44754
        3  |  9:56.55 |  5:08.13 |     44755    |    67867
        4  | 15:04.68 |  5:02.48 |     67868    |    90565
        5  | 20:07.41 |  5:57.48 |     90566    |   117388
        6  | 26:05.14 |  5:47.59 |    117389    |   143472
        7  | 31:52.73 |  5:36.71 |    143473    |   168743
        8  | 37:29.69 |  6:08.54 |    168744    |   196397
        9  | 43:38.48 |  8:33.09 |    196398    |   234881
       10  | 52:11.57 |  7:45.28 |    234882    |   269784
       11  | 59:57.10 |  6:19.45 |    269785    |   298254
Track  1
     Filename D:\_EAC\Harold Ashby - On The Sunny Side Of The Street (1992) [FLAC] {CDSOL-6376}\01 - Out Of Nowhere.wav
     Pre-gap length  0:00:02.00
     Peak level 97.3 %
     Extraction speed 3.0 X
     Track quality 100.0 %
     Test CRC 178FC59F
     Copy CRC 178FC59F
     Accurately ripped (confidence 1)  [693AA5A4]  (AR v2)
     Copy OK
Track  2
     Filename D:\_EAC\Harold Ashby - On The Sunny Side Of The Street (1992) [FLAC] {CDSOL-6376}\02 - There Is No Greater Love.wav
     Peak level 97.2 %
     Extraction speed 3.3 X
     Track quality 100.0 %
     Test CRC 6E214B3C
     Copy CRC 6E214B3C
     Accurately ripped (confidence 1)  [0B775EDF]  (AR v2)
     Copy OK
Track  3
     Filename D:\_EAC\Harold Ashby - On The Sunny Side Of The Street (1992) [FLAC] {CDSOL-6376}\03 - Honeysuckle Rose.wav
     Peak level 97.3 %
     Extraction speed 3.6 X
     Track quality 100.0 %
     Test CRC 3C2B8637
     Copy CRC 3C2B8637
     Accurately ripped (confidence 1)  [B9D23668]  (AR v2)
     Copy OK
Track  4
     Filename D:\_EAC\Harold Ashby - On The Sunny Side Of The Street (1992) [FLAC] {CDSOL-6376}\04 - Pennies From Heaven.wav
     Peak level 97.1 %
     Extraction speed 3.9 X
     Track quality 100.0 %
     Test CRC 24B8F061
     Copy CRC 24B8F061
     Accurately ripped (confidence 1)  [FF19DCC1]  (AR v2)
     Copy OK
Track  5
     Filename D:\_EAC\Harold Ashby - On The Sunny Side Of The Street (1992) [FLAC] {CDSOL-6376}\05 - It's The Talk Of The Town.wav
     Peak level 89.7 %
     Extraction speed 4.3 X
     Track quality 100.0 %
     Test CRC 20DCF265
     Copy CRC 20DCF265
     Accurately ripped (confidence 1)  [A4B9D0C9]  (AR v2)
     Copy OK
Track  6
     Filename D:\_EAC\Harold Ashby - On The Sunny Side Of The Street (1992) [FLAC] {CDSOL-6376}\06 - Satin Doll.wav
     Peak level 97.2 %
     Extraction speed 4.6 X
     Track quality 100.0 %
     Test CRC B764775E
     Copy CRC B764775E
     Accurately ripped (confidence 1)  [17A0BA49]  (AR v2)
     Copy OK
Track  7
     Filename D:\_EAC\Harold Ashby - On The Sunny Side Of The Street (1992) [FLAC] {CDSOL-6376}\07 - These Foolish Things (Remind Me Of You).wav
     Peak level 96.3 %
     Extraction speed 4.2 X
     Track quality 99.9 %
     Test CRC 4BF73862
     Copy CRC 4BF73862
     Accurately ripped (confidence 1)  [6E40530C]  (AR v2)
     Copy OK
Track  8
     Filename D:\_EAC\Harold Ashby - On The Sunny Side Of The Street (1992) [FLAC] {CDSOL-6376}\08 - On The Sunny Side Of The Street.wav
     Peak level 97.2 %
     Extraction speed 5.1 X
     Track quality 100.0 %
     Test CRC 89257EF2
     Copy CRC 89257EF2
     Accurately ripped (confidence 1)  [59FCBFFF]  (AR v2)
     Copy OK
Track  9
     Filename D:\_EAC\Harold Ashby - On The Sunny Side Of The Street (1992) [FLAC] {CDSOL-6376}\09 - Scufflin'.wav
     Peak level 97.3 %
     Extraction speed 5.5 X
     Track quality 100.0 %
     Test CRC 18A05796
     Copy CRC 18A05796
     Accurately ripped (confidence 1)  [DBFD2507]  (AR v2)
     Copy OK
Track 10
     Filename D:\_EAC\Harold Ashby - On The Sunny Side Of The Street (1992) [FLAC] {CDSOL-6376}\10 - In My Solitude.wav
     Peak level 97.2 %
     Extraction speed 5.8 X
     Track quality 100.0 %
     Test CRC 665564F9
     Copy CRC 665564F9
     Accurately ripped (confidence 1)  [8CD8CAA2]  (AR v2)
     Copy OK
Track 11
     Filename D:\_EAC\Harold Ashby - On The Sunny Side Of The Street (1992) [FLAC] {CDSOL-6376}\11 - Just Squeeze Me.wav
     Peak level 97.2 %
     Extraction speed 6.0 X
     Track quality 100.0 %
     Test CRC 8AF791C6
     Copy CRC 8AF791C6
     Accurately ripped (confidence 1)  [B17E7258]  (AR v2)
     Copy OK
All tracks accurately ripped
No errors occurred
End of status report
==== Log checksum 648377BF4B91B0F25232CC2ACA0E6369E8084FA15F84842B5BB2F6D241AEAAC5 ====
 
 
Содержание индексной карты (.CUE)
REM GENRE Jazz
REM DATE 1992
REM DISCID 960F880B
REM COMMENT "ExactAudioCopy v1.1"
PERFORMER "Harold Ashby"
TITLE "On The Sunny Side Of The Street"
FILE "01 - Out Of Nowhere.wav" WAVE
  TRACK 01 AUDIO
    TITLE "Out Of Nowhere"
    PERFORMER "Harold Ashby"
    FLAGS DCP
    INDEX 01 00:00:00
FILE "02 - There Is No Greater Love.wav" WAVE
  TRACK 02 AUDIO
    TITLE "There Is No Greater Love"
    PERFORMER "Harold Ashby"
    FLAGS DCP
    INDEX 01 00:00:00
FILE "03 - Honeysuckle Rose.wav" WAVE
  TRACK 03 AUDIO
    TITLE "Honeysuckle Rose"
    PERFORMER "Harold Ashby"
    FLAGS DCP
    INDEX 01 00:00:00
FILE "04 - Pennies From Heaven.wav" WAVE
  TRACK 04 AUDIO
    TITLE "Pennies From Heaven"
    PERFORMER "Harold Ashby"
    FLAGS DCP
    INDEX 01 00:00:00
FILE "05 - It's The Talk Of The Town.wav" WAVE
  TRACK 05 AUDIO
    TITLE "It's The Talk Of The Town"
    PERFORMER "Harold Ashby"
    FLAGS DCP
    INDEX 01 00:00:00
FILE "06 - Satin Doll.wav" WAVE
  TRACK 06 AUDIO
    TITLE "Satin Doll"
    PERFORMER "Harold Ashby"
    FLAGS DCP
    INDEX 01 00:00:00
FILE "07 - These Foolish Things (Remind Me Of You).wav" WAVE
  TRACK 07 AUDIO
    TITLE "These Foolish Things (Remind Me Of You)"
    PERFORMER "Harold Ashby"
    FLAGS DCP
    INDEX 01 00:00:00
FILE "08 - On The Sunny Side Of The Street.wav" WAVE
  TRACK 08 AUDIO
    TITLE "On The Sunny Side Of The Street"
    PERFORMER "Harold Ashby"
    FLAGS DCP
    INDEX 01 00:00:00
FILE "09 - Scufflin'.wav" WAVE
  TRACK 09 AUDIO
    TITLE "Scufflin'"
    PERFORMER "Harold Ashby"
    FLAGS DCP
    INDEX 01 00:00:00
FILE "10 - In My Solitude.wav" WAVE
  TRACK 10 AUDIO
    TITLE "In My Solitude"
    PERFORMER "Harold Ashby"
    FLAGS DCP
    INDEX 01 00:00:00
FILE "11 - Just Squeeze Me.wav" WAVE
  TRACK 11 AUDIO
    TITLE "Just Squeeze Me"
    PERFORMER "Harold Ashby"
    FLAGS DCP
    INDEX 01 00:00:00
По всем вопросам пишите личное сообщение пользователю M0p94ok.
11:19
272
Нет комментариев. Ваш будет первым!