Поиск

(Post-Bop) [CD] Hal Galper (w/ Terumasa Hino) - Now Hear This - 1977 (2006), FLAC (tracks+.cue), lossless

(Post-Bop) [CD] Hal Galper (w/ Terumasa Hino) - Now Hear This - 1977 (2006), FLAC (tracks+.cue), lossless
Hal Galper - Now Hear This
Жанр: Post-Bop
Носитель: CD
Страна-производитель диска: Германия
Год издания: 2006
Издатель (лейбл): Enja Records (24bit Master Edition)
Номер по каталогу: ENJ-2102 2
Аудиокодек: FLAC (*.flac)
Тип рипа: tracks+.cue
Битрейт аудио: lossless
Продолжительность: 48:31
Источник (релизер): mishka1981 (nnm)
Наличие сканов в содержимом раздачи: да
Треклист:
01. Now Hear This (Galper) - 8:27
02. Shadow Waltz (Galper) - 6:17
03. Red Eye Special (Galper) - 5:37
04. First Song in the Day (Galper) - 9:08
05. Mr. Fixit (Galper) - 5:13
06. Bemsha Swing (Monk) - 6:17
07. First Song in the Day (alternate take) (Galper) - 7:32
Состав:
Terumasa Hino - trumpet, flugelhorn
Hal Galper - piano
Cecil McBee - bass
Tony Williams - drums
Recorded at CI Sound, New York on February 15, 1977.
 
Лог создания рипа
Exact Audio Copy V1.0 beta 1 from 15. November 2010
EAC extraction logfile from 9. May 2014, 21:19
Hal Galper / Now Hear This
Used drive  : Optiarc DVD RW AD-7710H   Adapter: 1  ID: 0
Read mode               : Secure
Utilize accurate stream : Yes
Defeat audio cache      : Yes
Make use of C2 pointers : No
Read offset correction                      : 48
Overread into Lead-In and Lead-Out          : No
Fill up missing offset samples with silence : Yes
Delete leading and trailing silent blocks   : No
Null samples used in CRC calculations       : Yes
Used interface                              : Native Win32 interface for Win NT & 2000
Gap handling                                : Appended to previous track
Used output format              : User Defined Encoder
Selected bitrate                : 896 kBit/s
Quality                         : High
Add ID3 tag                     : No
Command line compressor         : C:\Program Files\Exact Audio Copy\FLAC\FLAC.EXE
Additional command line options : -8 -V -T "ARTIST=%a" -T "TITLE=%t" -T "ALBUM=%g" -T "DATE=%y" -T "TRACKNUMBER=%n" -T "GENRE=%m" -T "COMMENT=%e" %j--picture="%i"%j %s -o %d
TOC of the extracted CD
     Track |   Start  |  Length  | Start sector | End sector
    ---------------------------------------------------------
        1  |  0:00.00 |  8:27.12 |         0    |    38036
        2  |  8:27.12 |  6:16.49 |     38037    |    66285
        3  | 14:43.61 |  5:36.60 |     66286    |    91545
        4  | 20:20.46 |  9:08.02 |     91546    |   132647
        5  | 29:28.48 |  5:12.41 |    132648    |   156088
        6  | 34:41.14 |  6:16.41 |    156089    |   184329
        7  | 40:57.55 |  7:32.05 |    184330    |   218234
Track  1
     Filename C:\MY RIPS\01 - Now Hear This.wav
     Pre-gap length  0:00:02.00
     Peak level 90.0 %
     Extraction speed 3.1 X
     Track quality 100.0 %
     Test CRC E1A7A158
     Copy CRC E1A7A158
     Accurately ripped (confidence 2)  [DAE512E8]
     Copy OK
Track  2
     Filename C:\MY RIPS\02 - Shadow Waltz.wav
     Pre-gap length  0:00:01.58
     Peak level 49.8 %
     Extraction speed 3.6 X
     Track quality 100.0 %
     Test CRC 55F8F4DB
     Copy CRC 55F8F4DB
     Accurately ripped (confidence 2)  [60FEA9AD]
     Copy OK
Track  3
     Filename C:\MY RIPS\03 - Red Eye Special.wav
     Pre-gap length  0:00:01.58
     Peak level 86.3 %
     Extraction speed 3.9 X
     Track quality 100.0 %
     Test CRC 301774EA
     Copy CRC 301774EA
     Accurately ripped (confidence 2)  [0732BB4C]
     Copy OK
Track  4
     Filename C:\MY RIPS\04 - First Song In The Day.wav
     Pre-gap length  0:00:01.58
     Peak level 96.1 %
     Extraction speed 4.5 X
     Track quality 100.0 %
     Test CRC 16BB629B
     Copy CRC 16BB629B
     Accurately ripped (confidence 2)  [AB40D136]
     Copy OK
Track  5
     Filename C:\MY RIPS\05 - Mr. Fixit.wav
     Pre-gap length  0:00:01.58
     Peak level 83.4 %
     Extraction speed 4.7 X
     Track quality 100.0 %
     Test CRC 49402C6F
     Copy CRC 49402C6F
     Accurately ripped (confidence 2)  [62E985AC]
     Copy OK
Track  6
     Filename C:\MY RIPS\06 - Bemsha Swing.wav
     Pre-gap length  0:00:01.58
     Peak level 68.1 %
     Extraction speed 4.5 X
     Track quality 99.9 %
     Test CRC CAC3D10C
     Copy CRC CAC3D10C
     Accurately ripped (confidence 2)  [374CF2BA]
     Copy OK
Track  7
     Filename C:\MY RIPS\07 - First Song In The Day (alt. take).wav
     Pre-gap length  0:00:05.46
     Peak level 88.1 %
     Extraction speed 5.4 X
     Track quality 100.0 %
     Test CRC 5A6CDA05
     Copy CRC 5A6CDA05
     Accurately ripped (confidence 2)  [F0EA7FA8]
     Copy OK
All tracks accurately ripped
No errors occurred
End of status report
==== Log checksum 00480CDB84AC214EBBFEF9EA289F2CDBD4AFC15A2A22F090ECF84317BAAF1D08 ====
 
 
Содержание индексной карты (.CUE)
REM GENRE Jazz
REM DATE 1977
REM DISCID 5C0B5D07
REM COMMENT "ExactAudioCopy v1.0b1"
PERFORMER "Hal Galper"
TITLE "Now Hear This"
FILE "01 - Now Hear This.wav" WAVE
  TRACK 01 AUDIO
    TITLE "Now Hear This"
    PERFORMER "Hal Galper"
    INDEX 01 00:00:00
  TRACK 02 AUDIO
    TITLE "Shadow Waltz"
    PERFORMER "Hal Galper"
    INDEX 00 08:25:29
FILE "02 - Shadow Waltz.wav" WAVE
    INDEX 01 00:00:00
  TRACK 03 AUDIO
    TITLE "Red Eye Special"
    PERFORMER "Hal Galper"
    INDEX 00 06:14:66
FILE "03 - Red Eye Special.wav" WAVE
    INDEX 01 00:00:00
  TRACK 04 AUDIO
    TITLE "First Song in the Day"
    PERFORMER "Hal Galper"
    INDEX 00 05:35:02
FILE "04 - First Song in the Day.wav" WAVE
    INDEX 01 00:00:00
  TRACK 05 AUDIO
    TITLE "Mr. Fixit"
    PERFORMER "Hal Galper"
    INDEX 00 09:06:19
FILE "05 - Mr. Fixit.wav" WAVE
    INDEX 01 00:00:00
  TRACK 06 AUDIO
    TITLE "Bemsha Swing"
    PERFORMER "Hal Galper"
    INDEX 00 05:10:58
FILE "06 - Bemsha Swing.wav" WAVE
    INDEX 01 00:00:00
  TRACK 07 AUDIO
    TITLE "First Song in the Day (alternate take)"
    PERFORMER "Hal Galper"
    INDEX 00 06:10:70
FILE "07 - First Song in the Day (alternate take).wav" WAVE
    INDEX 01 00:00:00
 
 
Отчет CUETools
[CUETools log; Date: 10.07.2014 12:00:16; Version: 2.1.4]
[CTDB TOCID: o_l0WKC_NJu1iDPnknWgfPcrMZI-] found.
Track | CTDB Status
  1   | (1/1) Accurately ripped
  2   | (1/1) Accurately ripped
  3   | (1/1) Accurately ripped
  4   | (1/1) Accurately ripped
  5   | (1/1) Accurately ripped
  6   | (1/1) Accurately ripped
  7   | (1/1) Accurately ripped
[AccurateRip ID: 000d8983-00508599-5c0b5d07] found.
Track   [  CRC   |   V2   ] Status
 01     [dae512e8|e0d43bb1] (4+3/7) Accurately ripped
 02     [60fea9ad|cf3b4a28] (4+3/7) Accurately ripped
 03     [0732bb4c|c3fdb01a] (4+3/7) Accurately ripped
 04     [ab40d136|6dc38817] (4+3/7) Accurately ripped
 05     [62e985ac|3b38701a] (4+3/7) Accurately ripped
 06     [374cf2ba|f523f2e5] (4+3/7) Accurately ripped
 07     [f0ea7fa8|9071e156] (4+3/7) Accurately ripped
Track Peak [ CRC32  ] [W/O NULL] [  LOG   ]
 --   96,1 [C33D08CF] [FB27C568]
 01   90,0 [E1A7A158] [532B378C]   CRC32
 02   49,8 [55F8F4DB] [B3FA2425]   CRC32
 03   86,3 [301774EA] [7CBCAD12]   CRC32
 04   96,1 [16BB629B] [711E941E]   CRC32
 05   83,4 [49402C6F] [80413C77]   CRC32
 06   68,1 [CAC3D10C] [DAFADE2A]   CRC32
 07   88,1 [5A6CDA05] [7BED943B]   CRC32
 
 
Review by Ken Dryden
Hal Galper has long been an underrated composer and pianist. This Enja release from 1977 finds him at the top of his game in both roles, leading a strong quartet with trumpeter Terumasa Hino, bassist Cecil McBee, and drummer Tony Williams. Opening with his thunderous, inventive post-bop vehicle "Now Hear This," each musician adds something special to this driving piece (which also benefits from an in-tune piano, something not provided to Galper for a rendition heard on the live LP Speak with a Single Voice). The first track sets such high expectations that one would expect a letdown, but that isn't the case. Galper quickly cools things down with "Shadow Waltz," a lush ballad. In addition to his superb originals, Galper offers a jaunty take of Thelonious Monk's "Bemsha Swing."
11:06
761
Нет комментариев. Ваш будет первым!