Поиск

(Post-Bop) [CD] Gary Bartz - The Red And Orange Poems - 1994, FLAC (tracks+.cue), lossless

(Post-Bop) [CD] Gary Bartz - The Red And Orange Poems - 1994, FLAC (tracks+.cue), lossless
Треклист:
Gary Bartz - The Red And Orange Poems Жанр: Post-Bop
Носитель: CD
Год издания: 1994
Издатель (лейбл): Atlantic Jazz
Номер по каталогу: 82720-2
Аудиокодек: FLAC (*.flac)
Тип рипа: tracks+.cue
Битрейт аудио: lossless
Продолжительность: 58:38
Источник (релизер): ruskaval
Наличие сканов в содержимом раздачи: да
Треклист:
01. By Myself (7:01)
02. Nusia's Poem (9:27)
03. I'm Gonna Laugh You Right Out Of My Life (5:56)
04. J Seas (6:45)
05. Relentless (9:56)
06. Along The Twelve Tone Row (4:12)
07. Soulmate (5:58)
08. But Not For Me (9:24)
Personnel:
Gary Bartz - as
Eddie Henderson - tp, flgn
John Clark - frhn
Mulgrew Miller - p
Dave Holland - b
Drums Greg Bandy - d
Steve Kroon - perc
Rec.: Power Station, NYC, NY, September 24 & 25, 1994.
 
 
AllMusic Review by Scott Yanow
Alto veteran Gary Bartz may not have made it as big as originally predicted, but as shown on this 1994 studio date, he developed a sound of his own and was always capable of coming out with exciting yet thoughtful music. Joined by such associates as trumpeter Eddie Henderson, John Clark on French horn, pianist Mulgrew Miller, bassist Dave Holland, drummer Greg Bandy and percussionist Steve Kroon, Bartz is in excellent form on a variety of standards (including "By Myself" and "But Not for Me") and originals.

 
Лог создания рипа
Exact Audio Copy V1.1 from 23. June 2015
EAC extraction logfile from 30. May 2017, 19:42
Gary Bartz / The Red And Orange Poems
Used drive : MATSHITADVD+-RW SW830 Adapter: 1 ID: 0
Read mode : Secure
Utilize accurate stream : Yes
Defeat audio cache : Yes
Make use of C2 pointers : No
Read offset correction : 6
Overread into Lead-In and Lead-Out : No
Fill up missing offset samples with silence : Yes
Delete leading and trailing silent blocks : No
Null samples used in CRC calculations : Yes
Used interface : Native Win32 interface for Win NT & 2000
Gap handling : Appended to previous track
Used output format : User Defined Encoder
Selected bitrate : 896 kBit/s
Quality : High
Add ID3 tag : No
Command line compressor : C:\Program Files (x86)\Exact Audio Copy\Flac\flac.exe
Additional command line options : -8 -V -T "ARTIST=%artist%" -T "TITLE=%title%" -T "ALBUM=%albumtitle%" -T "DATE=%year%" -T "TRACKNUMBER=%tracknr%" -T "TOTALTRACKS=%numtracks%" -T "GENRE=%genre%" -T "ALBUMARTIST=%albumartist%" -T "ALBUM ARTIST=%albumartist%" -T "COMMENT=EAC Secure Mode, Test & Copy, AccurateRip, FLAC -8" %source%
TOC of the extracted CD
Track | Start | Length | Start sector | End sector
---------------------------------------------------------
1 | 0:00.32 | 7:01.33 | 32 | 31639
2 | 7:01.65 | 9:26.65 | 31640 | 74154
3 | 16:28.55 | 5:55.65 | 74155 | 100844
4 | 22:24.45 | 6:44.57 | 100845 | 131201
5 | 29:09.27 | 9:55.38 | 131202 | 175864
6 | 39:04.65 | 4:11.62 | 175865 | 194751
7 | 43:16.52 | 5:57.55 | 194752 | 221581
8 | 49:14.32 | 9:24.35 | 221582 | 263916
Track 1
Filename G:\New Rips\Gary Bartz - The Red And Orange Poems (1994) [FLAC]\01 - By Myself.wav
Pre-gap length 0:00:02.32
Peak level 94.3 %
Extraction speed 4.8 X
Track quality 100.0 %
Test CRC 6F6D49B6
Copy CRC 6F6D49B6
Accurately ripped (confidence 6) [9704E830] (AR v2)
Copy OK
Track 2
Filename G:\New Rips\Gary Bartz - The Red And Orange Poems (1994) [FLAC]\02 - Nusia's Poem.wav
Pre-gap length 0:00:00.02
Peak level 96.1 %
Extraction speed 5.8 X
Track quality 100.0 %
Test CRC 28BEB13F
Copy CRC 28BEB13F
Accurately ripped (confidence 5) [CA72E746] (AR v2)
Copy OK
Track 3
Filename G:\New Rips\Gary Bartz - The Red And Orange Poems (1994) [FLAC]\03 - I'm Gonna Laugh You Right Out Of My Life.wav
Pre-gap length 0:00:00.02
Peak level 85.9 %
Extraction speed 5.5 X
Track quality 99.9 %
Test CRC AA0AD5E6
Copy CRC AA0AD5E6
Accurately ripped (confidence 6) [BF43E149] (AR v2)
Copy OK
Track 4
Filename G:\New Rips\Gary Bartz - The Red And Orange Poems (1994) [FLAC]\04 - J Seas.wav
Pre-gap length 0:00:00.02
Peak level 95.4 %
Extraction speed 7.0 X
Track quality 100.0 %
Test CRC ABB09DC4
Copy CRC ABB09DC4
Accurately ripped (confidence 6) [FAA6CC88] (AR v2)
Copy OK
Track 5
Filename G:\New Rips\Gary Bartz - The Red And Orange Poems (1994) [FLAC]\05 - Relentless.wav
Pre-gap length 0:00:00.02
Peak level 96.0 %
Extraction speed 7.8 X
Track quality 100.0 %
Test CRC 3E962B15
Copy CRC 3E962B15
Accurately ripped (confidence 5) [1389DA1C] (AR v2)
Copy OK
Track 6
Filename G:\New Rips\Gary Bartz - The Red And Orange Poems (1994) [FLAC]\06 - Along The Twelve Tone Row.wav
Pre-gap length 0:00:00.02
Peak level 93.7 %
Extraction speed 7.7 X
Track quality 100.0 %
Test CRC 16174E9D
Copy CRC 16174E9D
Accurately ripped (confidence 6) [2FE33601] (AR v2)
Copy OK
Track 7
Filename G:\New Rips\Gary Bartz - The Red And Orange Poems (1994) [FLAC]\07 - Soulmate.wav
Pre-gap length 0:00:00.02
Peak level 88.7 %
Extraction speed 4.5 X
Track quality 100.0 %
Test CRC B6923300
Copy CRC B6923300
Accurately ripped (confidence 6) [B4125DE9] (AR v2)
Copy OK
Track 8
Filename G:\New Rips\Gary Bartz - The Red And Orange Poems (1994) [FLAC]\08 - But Not For Me.wav
Pre-gap length 0:00:00.02
Peak level 90.9 %
Extraction speed 9.2 X
Track quality 100.0 %
Test CRC D8C8BD90
Copy CRC D8C8BD90
Accurately ripped (confidence 4) [EAD012A4] (AR v2)
Copy OK
All tracks accurately ripped
No errors occurred
End of status report
---- CUETools DB Plugin V2.1.6
[CTDB TOCID: RHcCSW2ugJYAmO7G6w8c9o5tB50-] found
Submit result: RHcCSW2ugJYAmO7G6w8c9o5tB50- has been confirmed
Track | CTDB Status
1 | (3/3) Accurately ripped
2 | (3/3) Accurately ripped
3 | (3/3) Accurately ripped
4 | (3/3) Accurately ripped
5 | (3/3) Accurately ripped
6 | (3/3) Accurately ripped
7 | (3/3) Accurately ripped
8 | (3/3) Accurately ripped
==== Log checksum 24FF069E9A5CC832F9CC37648E73C64E2B331FC7D64946E737ACEE3A39212E73 ====
 
Содержание индексной карты (.CUE)
REM GENRE Jazz
REM DATE 1994
REM DISCID 760DBE08
REM COMMENT "ExactAudioCopy v1.1"
PERFORMER "Gary Bartz"
TITLE "The Red And Orange Poems"
FILE "01 - By Myself.wav" WAVE
TRACK 01 AUDIO
TITLE "By Myself"
PERFORMER "Gary Bartz"
PREGAP 00:00:32
INDEX 01 00:00:00
TRACK 02 AUDIO
TITLE "Nusia's Poem"
PERFORMER "Gary Bartz"
INDEX 00 07:01:31
FILE "02 - Nusia's Poem.wav" WAVE
INDEX 01 00:00:00
TRACK 03 AUDIO
TITLE "I'm Gonna Laugh You Right Out Of My Life"
PERFORMER "Gary Bartz"
INDEX 00 09:26:63
FILE "03 - I'm Gonna Laugh You Right Out Of My Life.wav" WAVE
INDEX 01 00:00:00
TRACK 04 AUDIO
TITLE "J Seas"
PERFORMER "Gary Bartz"
INDEX 00 05:55:63
FILE "04 - J Seas.wav" WAVE
INDEX 01 00:00:00
TRACK 05 AUDIO
TITLE "Relentless"
PERFORMER "Gary Bartz"
INDEX 00 06:44:55
FILE "05 - Relentless.wav" WAVE
INDEX 01 00:00:00
TRACK 06 AUDIO
TITLE "Along The Twelve Tone Row"
PERFORMER "Gary Bartz"
INDEX 00 09:55:36
FILE "06 - Along The Twelve Tone Row.wav" WAVE
INDEX 01 00:00:00
TRACK 07 AUDIO
TITLE "Soulmate"
PERFORMER "Gary Bartz"
INDEX 00 04:11:60
FILE "07 - Soulmate.wav" WAVE
INDEX 01 00:00:00
TRACK 08 AUDIO
TITLE "But Not For Me"
PERFORMER "Gary Bartz"
INDEX 00 05:57:53
FILE "08 - But Not For Me.wav" WAVE
INDEX 01 00:00:00
Приватный:
Нет (DHT включён)
Размер:
370.62 Мб (388,622,051 байт) » файлов: 18
Участники:
0 раздают, 0 качают (0 участников всего)
Внешние участники:
2 раздают, 1 качают (3 участников всего) [ Обновить ]
For power users only: no seeders - write to support@pro-jazz.com. Для power user: нет сидеров - пишите на support@pro-jazz.com.
05:42
113
Нет комментариев. Ваш будет первым!