Поиск

(Post Bop) [CD] Gary Bartz - Shadows - 1992, FLAC (tracks+.cue), lossless

(Post Bop) [CD] Gary Bartz - Shadows - 1992, FLAC (tracks+.cue), lossless
Треклист:
Gary Bartz / Shadows
Жанр: Post Bop
Носитель: CD
Год издания: 1992
Издатель (лейбл): Timeless Records
Номер по каталогу: CD SJP 379
Аудиокодек: FLAC (*.flac)
Тип рипа: tracks+.cue
Битрейт аудио: lossless
Продолжительность: 69:25
Источник (релизер): обмен
Наличие сканов в содержимом раздачи: да
Треклист:
01. Gary Bartz - Marion's Theme (9:49)
02. Gary Bartz - Shadows (12:31)
03. Gary Bartz - Songs Of The Underground Railroad (10:26)
04. Gary Bartz - Peresina (14:35)
05. Gary Bartz - How Do You Keep The Music Playing (4:50)
06. Gary Bartz - Children Of The Night (9:33)
07. Gary Bartz - Holiday For Strings (7:41)
 
Лог создания рипа
Exact Audio Copy V1.0 beta 3 from 29. August 2011
EAC extraction logfile from 8. May 2015, 22:20
Gary Bartz / Shadows
Used drive : SONY DVD RW DRU-810A Adapter: 1 ID: 0
Read mode : Secure
Utilize accurate stream : Yes
Defeat audio cache : Yes
Make use of C2 pointers : No
Read offset correction : 618
Overread into Lead-In and Lead-Out : No
Fill up missing offset samples with silence : Yes
Delete leading and trailing silent blocks : No
Null samples used in CRC calculations : Yes
Used interface : Native Win32 interface for Win NT & 2000
Gap handling : Appended to previous track
Used output format : User Defined Encoder
Selected bitrate : 128 kBit/s
Quality : High
Add ID3 tag : No
Command line compressor : C:\Program Files (x86)\Exact Audio Copy\Flac\flac.exe
Additional command line options : -8 -V -T "ARTIST=%artist%" -T "TITLE=%title%" -T "ALBUM=%albumtitle%" -T "DATE=%year%" -T "TRACKNUMBER=%tracknr%" -T "TOTALTRACKS=%numtracks%" -T "GENRE=%genre%" -T "ALBUMARTIST=%albumartist%" -T "ALBUM ARTIST=%albumartist%" -T "COMMENT=EAC Secure Mode, Test & Copy, AccurateRip, FLAC -8" %source%
TOC of the extracted CD
Track | Start | Length | Start sector | End sector
---------------------------------------------------------
1 | 0:00.00 | 9:49.03 | 0 | 44177
2 | 9:49.03 | 12:30.55 | 44178 | 100482
3 | 22:19.58 | 10:25.40 | 100483 | 147397
4 | 32:45.23 | 14:35.35 | 147398 | 213057
5 | 47:20.58 | 4:50.32 | 213058 | 234839
6 | 52:11.15 | 9:32.63 | 234840 | 277802
7 | 61:44.03 | 7:41.32 | 277803 | 312409
Track 1
Filename F:\New Rips\Gary Bartz - Shadows (1992) [FLAC]\01 - Marion's Theme.wav
Pre-gap length 0:00:02.00
Peak level 93.4 %
Extraction speed 5.7 X
Track quality 100.0 %
Test CRC 916A87C9
Copy CRC 916A87C9
Accurately ripped (confidence 7) [7F6D1C07] (AR v2)
Copy OK
Track 2
Filename F:\New Rips\Gary Bartz - Shadows (1992) [FLAC]\02 - Shadows.wav
Pre-gap length 0:00:03.25
Peak level 71.4 %
Extraction speed 6.9 X
Track quality 100.0 %
Test CRC 684D7B16
Copy CRC 684D7B16
Accurately ripped (confidence 7) [772377AF] (AR v2)
Copy OK
Track 3
Filename F:\New Rips\Gary Bartz - Shadows (1992) [FLAC]\03 - Songs Of The Underground Railroad.wav
Pre-gap length 0:00:04.23
Peak level 62.1 %
Extraction speed 7.8 X
Track quality 100.0 %
Test CRC 727C9ABA
Copy CRC 727C9ABA
Accurately ripped (confidence 7) [18840B2C] (AR v2)
Copy OK
Track 4
Filename F:\New Rips\Gary Bartz - Shadows (1992) [FLAC]\04 - Peresina.wav
Pre-gap length 0:00:01.70
Peak level 93.5 %
Extraction speed 8.4 X
Track quality 99.9 %
Test CRC 7FCCD7BE
Copy CRC 7FCCD7BE
Accurately ripped (confidence 7) [9A448B1A] (AR v2)
Copy OK
Track 5
Filename F:\New Rips\Gary Bartz - Shadows (1992) [FLAC]\05 - How Do You Keep The Music Playing.wav
Pre-gap length 0:00:04.18
Peak level 71.0 %
Extraction speed 8.8 X
Track quality 100.0 %
Test CRC 63E917FF
Copy CRC 63E917FF
Accurately ripped (confidence 7) [1F2D693F] (AR v2)
Copy OK
Track 6
Filename F:\New Rips\Gary Bartz - Shadows (1992) [FLAC]\06 - Children Of The Night.wav
Pre-gap length 0:00:02.72
Peak level 83.7 %
Extraction speed 9.7 X
Track quality 100.0 %
Test CRC 1E20450A
Copy CRC 1E20450A
Accurately ripped (confidence 7) [9CB96621] (AR v2)
Copy OK
Track 7
Filename F:\New Rips\Gary Bartz - Shadows (1992) [FLAC]\07 - Holiday For Strings.wav
Pre-gap length 0:00:03.28
Peak level 88.0 %
Extraction speed 10.0 X
Track quality 100.0 %
Test CRC 137E6370
Copy CRC 137E6370
Accurately ripped (confidence 7) [A0EDFF90] (AR v2)
Copy OK
All tracks accurately ripped
No errors occurred
End of status report
---- CUETools DB Plugin V2.1.3
[CTDB TOCID: hAeWnJj0GleyWeCkKkdutLFbIVI-] found, Submit result: already submitted
[8ac78bf5] (4/5) Accurately ripped
[13b3d77d] (1/5) No match
==== Log checksum C2EE2CAEA08F89616AA0F9485F3CD88C7E33BC5EE58D826778F9D8672F531040 ====
 
Содержание индексной карты (.CUE)
REM GENRE Jazz
REM DATE 1992
REM DISCID 5B104507
REM COMMENT "ExactAudioCopy v1.0b3"
PERFORMER "Gary Bartz"
TITLE "Shadows"
FILE "01 - Marion's Theme.wav" WAVE
TRACK 01 AUDIO
TITLE "Marion's Theme"
PERFORMER "Gary Bartz"
INDEX 01 00:00:00
TRACK 02 AUDIO
TITLE "Shadows"
PERFORMER "Gary Bartz"
FLAGS DCP
INDEX 00 09:45:53
FILE "02 - Shadows.wav" WAVE
INDEX 01 00:00:00
TRACK 03 AUDIO
TITLE "Songs Of The Underground Railroad"
PERFORMER "Gary Bartz"
FLAGS DCP
INDEX 00 12:26:32
FILE "03 - Songs Of The Underground Railroad.wav" WAVE
INDEX 01 00:00:00
TRACK 04 AUDIO
TITLE "Peresina"
PERFORMER "Gary Bartz"
FLAGS DCP
INDEX 00 10:23:45
FILE "04 - Peresina.wav" WAVE
INDEX 01 00:00:00
TRACK 05 AUDIO
TITLE "How Do You Keep The Music Playing"
PERFORMER "Gary Bartz"
FLAGS DCP
INDEX 00 14:31:17
FILE "05 - How Do You Keep The Music Playing.wav" WAVE
INDEX 01 00:00:00
TRACK 06 AUDIO
TITLE "Children Of The Night"
PERFORMER "Gary Bartz"
FLAGS DCP
INDEX 00 04:47:35
FILE "06 - Children Of The Night.wav" WAVE
INDEX 01 00:00:00
TRACK 07 AUDIO
TITLE "Holiday For Strings"
PERFORMER "Gary Bartz"
FLAGS DCP
INDEX 00 09:29:35
FILE "07 - Holiday For Strings.wav" WAVE
INDEX 01 00:00:00
Приватный:
Нет (DHT включён)
Размер:
400.77 Мб (420,240,777 байт) » файлов: 15
Участники:
0 раздают, 0 качают (0 участников всего)
Внешние участники:
5 раздают, 2 качают (7 участников всего) [ Обновить ]
For power users only: no seeders - write to support@pro-jazz.com. Для power user: нет сидеров - пишите на support@pro-jazz.com.
11:21
113
Нет комментариев. Ваш будет первым!