Поиск

(Post-Bop) [CD] Gary Bartz - Shadows (1991) - 2015, FLAC (tracks+.cue), lossless

(Post-Bop) [CD] Gary Bartz - Shadows (1991) - 2015, FLAC (tracks+.cue), lossless
Треклист:
Gary Bartz - Shadows (1991) Жанр: Post-Bop
Носитель: CD
Страна-производитель диска: Japan
Год издания: 2015
Издатель (лейбл): Timeless Records/Solid Records Japan/Ultra-Vibe
Номер по каталогу: CDSOL-6328
Аудиокодек: FLAC (*.flac)
Тип рипа: tracks+.cue
Битрейт аудио: lossless
Продолжительность: 69:28
Rip by ruskaval
Наличие сканов в содержимом раздачи: да
Personnel:
Gary Bartz - as, ss
Willie Williams - ts
Benny Green - p
Christian McBride - b
Victor Lewis - d
Треклист:
01. Marion's Theme (9:49)
02. Shadows (12:31)
03. Songs Of The Underground Railroad (10:26)
04. Peresina (14:36)
05. How Do You Keep The Music Playing (4:50)
06. Children Of The Night (9:33)
07. Holiday For Strings (7:43)
Rec.: Clinton Sound Studios, NYC, NY, June 11 & 12, 1991.
 
 
Лог создания рипа
Exact Audio Copy V1.1 from 23. June 2015
EAC extraction logfile from 1. February 2016, 0:24
Garry Bartz / Shadows
Used drive : TSSTcorpCDDVDW SE-208DB Adapter: 1 ID: 0
Read mode : Secure
Utilize accurate stream : Yes
Defeat audio cache : Yes
Make use of C2 pointers : No
Read offset correction : 6
Overread into Lead-In and Lead-Out : No
Fill up missing offset samples with silence : Yes
Delete leading and trailing silent blocks : No
Null samples used in CRC calculations : Yes
Used interface : Native Win32 interface for Win NT & 2000
Gap handling : Appended to previous track
Used output format : User Defined Encoder
Selected bitrate : 1024 kBit/s
Quality : High
Add ID3 tag : No
Command line compressor : C:\Program Files (x86)\FLAC Frontend\tools\flac.exe
Additional command line options : -8 -V -T "ARTIST=%artist%" -T "TITLE=%title%" -T "ALBUM=%albumtitle%" -T "DATE=%year%" -T "TRACKNUMBER=%tracknr%" -T "TOTALTRACKS=%numtracks%" -T "GENRE=%genre%" -T "ALBUMARTIST=%albumartist%" -T "ALBUM ARTIST=%albumartist%" -T "COMMENT=EAC Secure Mode, Test & Copy, AccurateRip, FLAC -8" %source%
TOC of the extracted CD
Track | Start | Length | Start sector | End sector
---------------------------------------------------------
1 | 0:00.00 | 9:49.29 | 0 | 44203
2 | 9:49.29 | 12:30.62 | 44204 | 100515
3 | 22:20.16 | 10:25.39 | 100516 | 147429
4 | 32:45.55 | 14:35.41 | 147430 | 213095
5 | 47:21.21 | 4:50.29 | 213096 | 234874
6 | 52:11.50 | 9:32.63 | 234875 | 277837
7 | 61:44.38 | 7:43.10 | 277838 | 312572
Track 1
Filename D:\_EAC\Gary Bartz - Shadows (1991) [FLAC] {2015 Japan Timeless Jazz Master Collection}\01 - Marion's Theme.wav
Pre-gap length 0:00:02.00
Peak level 97.3 %
Extraction speed 3.2 X
Track quality 100.0 %
Test CRC 2D4D16A2
Copy CRC 2D4D16A2
Track not present in AccurateRip database
Copy OK
Track 2
Filename D:\_EAC\Gary Bartz - Shadows (1991) [FLAC] {2015 Japan Timeless Jazz Master Collection}\02 - Shadows.wav
Peak level 97.3 %
Extraction speed 4.0 X
Track quality 100.0 %
Test CRC 75959435
Copy CRC 75959435
Track not present in AccurateRip database
Copy OK
Track 3
Filename D:\_EAC\Gary Bartz - Shadows (1991) [FLAC] {2015 Japan Timeless Jazz Master Collection}\03 - Songs Of The Underground Railroad.wav
Peak level 97.3 %
Extraction speed 4.5 X
Track quality 100.0 %
Test CRC E5D8150F
Copy CRC E5D8150F
Track not present in AccurateRip database
Copy OK
Track 4
Filename D:\_EAC\Gary Bartz - Shadows (1991) [FLAC] {2015 Japan Timeless Jazz Master Collection}\04 - Peresina.wav
Peak level 97.3 %
Extraction speed 5.2 X
Track quality 100.0 %
Test CRC 4B49BD47
Copy CRC 4B49BD47
Track not present in AccurateRip database
Copy OK
Track 5
Filename D:\_EAC\Gary Bartz - Shadows (1991) [FLAC] {2015 Japan Timeless Jazz Master Collection}\05 - How Do You Keep The Music Playing.wav
Peak level 97.3 %
Extraction speed 5.1 X
Track quality 100.0 %
Test CRC 55F8492A
Copy CRC 55F8492A
Track not present in AccurateRip database
Copy OK
Track 6
Filename D:\_EAC\Gary Bartz - Shadows (1991) [FLAC] {2015 Japan Timeless Jazz Master Collection}\06 - Children Of The Night.wav
Peak level 97.3 %
Extraction speed 5.6 X
Track quality 100.0 %
Test CRC EF940F3C
Copy CRC EF940F3C
Track not present in AccurateRip database
Copy OK
Track 7
Filename D:\_EAC\Gary Bartz - Shadows (1991) [FLAC] {2015 Japan Timeless Jazz Master Collection}\07 - Holiday For Strings.wav
Peak level 97.3 %
Extraction speed 4.9 X
Track quality 99.9 %
Test CRC 320ED8EE
Copy CRC 320ED8EE
Track not present in AccurateRip database
Copy OK
None of the tracks are present in the AccurateRip database
No errors occurred
End of status report
==== Log checksum 35A39302F191CBA9A894E29F38A305D193E5580E7A6FA1F2BD4EAEBF300EC898 ====
 
Содержание индексной карты (.CUE)
REM GENRE Jazz
REM DATE 1991
REM DISCID 5D104707
REM COMMENT "ExactAudioCopy v1.1"
PERFORMER "Gary Bartz"
TITLE "Shadows"
FILE "01 - Marion's Theme.wav" WAVE
TRACK 01 AUDIO
TITLE "Marion's Theme"
PERFORMER "Gary Bartz"
FLAGS DCP
INDEX 01 00:00:00
FILE "02 - Shadows.wav" WAVE
TRACK 02 AUDIO
TITLE "Shadows"
PERFORMER "Gary Bartz"
FLAGS DCP
INDEX 01 00:00:00
FILE "03 - Songs Of The Underground Railroad.wav" WAVE
TRACK 03 AUDIO
TITLE "Songs Of The Underground Railroad"
PERFORMER "Gary Bartz"
FLAGS DCP
INDEX 01 00:00:00
FILE "04 - Peresina.wav" WAVE
TRACK 04 AUDIO
TITLE "Peresina"
PERFORMER "Gary Bartz"
FLAGS DCP
INDEX 01 00:00:00
FILE "05 - How Do You Keep The Music Playing.wav" WAVE
TRACK 05 AUDIO
TITLE "How Do You Keep The Music Playing"
PERFORMER "Gary Bartz"
FLAGS DCP
INDEX 01 00:00:00
FILE "06 - Children Of The Night.wav" WAVE
TRACK 06 AUDIO
TITLE "Children Of The Night"
PERFORMER "Gary Bartz"
FLAGS DCP
INDEX 01 00:00:00
FILE "07 - Holiday For Strings.wav" WAVE
TRACK 07 AUDIO
TITLE "Holiday For Strings"
PERFORMER "Gary Bartz"
FLAGS DCP
INDEX 01 00:00:00
Приватный:
Нет (DHT включён)
Размер:
688.04 Мб (721,465,585 байт) » файлов: 25
Участники:
0 раздают, 0 качают (0 участников всего)
Внешние участники:
2 раздают, 1 качают (3 участников всего) [ Обновить ]
For power users only: no seeders - write to support@pro-jazz.com. Для power user: нет сидеров - пишите на support@pro-jazz.com.
06:50
98
Нет комментариев. Ваш будет первым!