Поиск

(Post-Bop) [CD] Gary Bartz Quartet - Monsoon - 1988, FLAC (tracks+.cue), lossless

(Post-Bop) [CD] Gary Bartz Quartet - Monsoon - 1988, FLAC (tracks+.cue), lossless
Треклист:
Gary Bartz Quartet - Monsoon
Жанр: Post-Bop
Носитель: CD
Страна-производитель диска: Дания
Год издания: 1988
Издатель (лейбл): SteepleChase
Номер по каталогу: SCCD 31234
Страна: США
Аудиокодек: FLAC (*.flac)
Тип рипа: tracks+.cue
Битрейт аудио: lossless
Продолжительность: 61:05
Источник (релизер): udonthaveto (what)
Наличие сканов в содержимом раздачи: нет
Треклист:
01. Samuel (Salim) - 7:30
02. Never Never Land (Stein) - 7:53
03. Run Before the Sun (Houston) - 12:48
04. Strode Rode (Rollins) - 7:15
05. Monsoon (Bartz) - 9:23
06. Soul Eyes (Waldron) - 7:58
07. Uncle Bubba (Bartz) - 8:18
Состав:
Gary Bartz - alto saxophone
Butch Lacy - piano
Clint Houston - bass
Billy Hart - drums
 
Лог создания рипа
Exact Audio Copy V0.99 prebeta 4 from 23. January 2008
EAC extraction logfile from 18. May 2009, 4:00
Gary Bartz Quartet / Monsoon
Used drive : HL-DT-STDVDRAM GSA-4167B Adapter: 0 ID: 0
Read mode : Secure
Utilize accurate stream : Yes
Defeat audio cache : Yes
Make use of C2 pointers : No
Read offset correction : 667
Overread into Lead-In and Lead-Out : No
Fill up missing offset samples with silence : Yes
Delete leading and trailing silent blocks : No
Null samples used in CRC calculations : Yes
Used interface : Native Win32 interface for Win NT & 2000
Gap handling : Appended to previous track
Used output format : User Defined Encoder
Selected bitrate : 128 kBit/s
Quality : High
Add ID3 tag : No
Command line compressor : D:\Program Files\Exact Audio Copy\Flac\flac.exe
Additional command line options : -V -8 -T "ARTIST=%a" -T "TITLE=%t" -T "ALBUM=%g" -T "DATE=%y" -T "TRACKNUMBER=%n" -T "GENRE=%m" -T "COMMENT=EAC FLAC -8" %s
TOC of the extracted CD
Track | Start | Length | Start sector | End sector
---------------------------------------------------------
1 | 0:00.33 | 7:29.45 | 33 | 33752
2 | 7:30.03 | 7:52.60 | 33753 | 69212
3 | 15:22.63 | 12:47.60 | 69213 | 126797
4 | 28:10.48 | 7:15.12 | 126798 | 159434
5 | 35:25.60 | 9:22.53 | 159435 | 201637
6 | 44:48.38 | 7:57.67 | 201638 | 237479
7 | 52:46.30 | 8:17.55 | 237480 | 274809
Track 1
Filename H:\0 Rip\01 - Samuel.wav
Pre-gap length 0:00:02.44
Peak level 71.9 %
Track quality 99.9 %
Test CRC 05D5CE1E
Copy CRC 05D5CE1E
Copy OK
Track 2
Filename H:\0 Rip\02 - Never Never Land.wav
Pre-gap length 0:00:03.50
Peak level 52.0 %
Track quality 100.0 %
Test CRC 5377CBA7
Copy CRC 5377CBA7
Copy OK
Track 3
Filename H:\0 Rip\03 - Run Before The Sun.wav
Pre-gap length 0:00:03.50
Peak level 100.0 %
Track quality 100.0 %
Test CRC FD8FD87E
Copy CRC FD8FD87E
Copy OK
Track 4
Filename H:\0 Rip\04 - Strode Rode.wav
Pre-gap length 0:00:03.50
Peak level 96.6 %
Track quality 100.0 %
Test CRC 2EA49AB4
Copy CRC 2EA49AB4
Copy OK
Track 5
Filename H:\0 Rip\05 - Monsoon.wav
Pre-gap length 0:00:03.49
Peak level 95.4 %
Track quality 100.0 %
Test CRC A72C413F
Copy CRC A72C413F
Copy OK
Track 6
Filename H:\0 Rip\06 - Soul Eyes.wav
Pre-gap length 0:00:03.50
Peak level 67.6 %
Track quality 100.0 %
Test CRC 4E28AB25
Copy CRC 4E28AB25
Copy OK
Track 7
Filename H:\0 Rip\07 - Uncle Bubba.wav
Pre-gap length 0:00:03.49
Peak level 81.4 %
Track quality 100.0 %
Test CRC 1D80BEEC
Copy CRC 1D80BEEC
Copy OK
No errors occurred
End of status report
 
Содержание индексной карты (.CUE)
REM GENRE Jazz
REM DATE 1988
REM DISCID 5D0E5007
REM COMMENT "ExactAudioCopy v0.99pb4"
PERFORMER "Gary Bartz"
TITLE "Monsoon"
FILE "01 - Samuel.wav" WAVE
TRACK 01 AUDIO
TITLE "Samuel"
PERFORMER "Gary Bartz"
PREGAP 00:00:33
INDEX 01 00:00:00
TRACK 02 AUDIO
TITLE "Never Never Land"
PERFORMER "Gary Bartz"
INDEX 00 07:26:07
FILE "02 - Never Never Land.wav" WAVE
INDEX 01 00:00:00
TRACK 03 AUDIO
TITLE "Run Before the Sun"
PERFORMER "Gary Bartz"
INDEX 00 07:49:22
FILE "03 - Run Before the Sun.wav" WAVE
INDEX 01 00:00:00
TRACK 04 AUDIO
TITLE "Strode Rode"
PERFORMER "Gary Bartz"
INDEX 00 12:44:22
FILE "04 - Strode Rode.wav" WAVE
INDEX 01 00:00:00
TRACK 05 AUDIO
TITLE "Monsoon"
PERFORMER "Gary Bartz"
INDEX 00 07:11:50
FILE "05 - Monsoon.wav" WAVE
INDEX 01 00:00:00
TRACK 06 AUDIO
TITLE "Soul Eyes"
PERFORMER "Gary Bartz"
INDEX 00 09:19:15
FILE "06 - Soul Eyes.wav" WAVE
INDEX 01 00:00:00
TRACK 07 AUDIO
TITLE "Uncle Bubba"
PERFORMER "Gary Bartz"
INDEX 00 07:54:30
FILE "07 - Uncle Bubba.wav" WAVE
INDEX 01 00:00:00
 
Отчет CUETools
[CUETools log; Date: 15.09.2014 15:23:02; Version: 2.1.5]
Pregap length 00:00:33.
[CTDB TOCID: xwaPBwpANbCJn.RERlemZNy4aNg-] found.
Track | CTDB Status
1 | (1/1) Accurately ripped
2 | (1/1) Accurately ripped
3 | (1/1) Accurately ripped
4 | (1/1) Accurately ripped
5 | (1/1) Accurately ripped
6 | (1/1) Accurately ripped
7 | (1/1) Accurately ripped
[AccurateRip ID: 0010d538-00657965-5d0e5007] found.
Track [ CRC | V2 ] Status
01 [26e48fc7|419c228e] (0+3/3) Accurately ripped
02 [bd0c6b67|b9b692f0] (0+3/3) Accurately ripped
03 [272ac7cb|abc287ef] (0+3/3) Accurately ripped
04 [4bd07683|d980a271] (0+3/3) Accurately ripped
05 [a69f31dc|01cf444c] (0+3/3) Accurately ripped
06 [2ae5f8cf|2d636161] (0+3/3) Accurately ripped
07 [0d37bc51|cf3d220b] (0+3/3) Accurately ripped
Track Peak [ CRC32 ] [W/O NULL] [ LOG ]
-- 100,0 [5F168E5B] [400FE717]
01 71,9 [05D5CE1E] [94C1BD7E] CRC32
02 52,0 [5377CBA7] [DCADA4A5] CRC32
03 100,0 [FD8FD87E] [237369C6] CRC32
04 96,6 [2EA49AB4] [12F2BB85] CRC32
05 95,4 [A72C413F] [5AB68B1A] CRC32
06 67,6 [4E28AB25] [3EB2B6E3] CRC32
07 81,4 [1D80BEEC] [01CAF747] CRC32
 
Об альбоме (сборнике)
This is a good session notwithstanding the tepid review it got in The Penguin Guide. The piano player Butch Lacy is a little light touched but he's allright. Gary plays Alto Sax only and plays like a somewhat toned down Bobby Watson, still with plenty of drive.He plays 2 ballads and there is a CD bonus track the 12 minute"Run Before The Sun" a somewhat down tempo piece. A good buy. All those used offerings must come from people expecting Gary to double on soprano sax and play avant guardish but NO-Hard Bop Lives! I take back what I said about the piano player. He plays like Kenny Drew and if Kenny was a little light touched- so be it. A good Straight Ahead follow-up is-Red and Orange Poems-with Eddie Henderson and Mulgrew Miller in the group. Still no soprano sax from Gary and that's fine with me.
-- John M.
Приватный:
Нет (DHT включён)
Размер:
342.80 Мб (359,454,020 байт) » файлов: 13
Участники:
0 раздают, 1 качают (1 участников всего)
Внешние участники:
1 раздают, 0 качают (1 участников всего) [ Обновить ]
Скорость:
25.44 Кб/c 0/c
For power users only: no seeders - write to support@pro-jazz.com. Для power user: нет сидеров - пишите на support@pro-jazz.com.
11:09
105
Нет комментариев. Ваш будет первым!