Поиск

(Post-Bop) [CD] Dannie Richmond & The Last Mingus Band - Plays Charles Mingus (1980) - 2015 {CDSOL-6383}, FLAC (tracks+.cue), lossless

(Post-Bop) [CD] Dannie Richmond & The Last Mingus Band - Plays Charles Mingus (1980) - 2015 {CDSOL-6383}, FLAC (tracks+.cue), lossless
Треклист:
Dannie Richmond & The Last Mingus Band - Plays Charles Mingus (1980) Жанр: Post-Bop
Носитель: CD
Страна-производитель диска: Japan
Год издания: 2015
Издатель (лейбл): Timeless Records/Solid Records Japan/Ultra-Vibe
Номер по каталогу: CDSOL-6383
Аудиокодек: FLAC (*.flac)
Тип рипа: tracks+.cue
Битрейт аудио: lossless
Продолжительность: 43:31
Rip by ruskaval
Наличие сканов в содержимом раздачи: да
Треклист:
01. Fables Of Fobous (13:21)
02. Good Bye Pork Pye (4:47)
03. Nostalgia In Times Square (4:49)
04. Noddin' Your Head Blues (5:10)
05. Duke Ellington Sound Of Love (10:14)
06. Wee (5:10)
Personnel:
Dannie Richmond - drums
Jack Walrath - trumpet
Ricky Ford - tenor saxophone
Bob Neloms - piano
Cameron Brown - bass
Rec.: Fonoprint Studio, Bologna, Italy, August, 18, 1980.
 
 
Лог создания рипа
Exact Audio Copy V1.1 from 23. June 2015
EAC extraction logfile from 3. August 2016, 21:21
Dannie Richmond & The Last Mingus Band / Plays Charles Mingus
Used drive  : HL-DT-STDVDRAM GP50NW41   Adapter: 1  ID: 0
Read mode               : Secure
Utilize accurate stream : Yes
Defeat audio cache      : Yes
Make use of C2 pointers : No
Read offset correction                      : 6
Overread into Lead-In and Lead-Out          : No
Fill up missing offset samples with silence : Yes
Delete leading and trailing silent blocks   : No
Null samples used in CRC calculations       : Yes
Used interface                              : Native Win32 interface for Win NT & 2000
Gap handling                                : Appended to previous track
Used output format              : User Defined Encoder
Selected bitrate                : 1024 kBit/s
Quality                         : High
Add ID3 tag                     : No
Command line compressor         : C:\Program Files (x86)\FLAC Frontend\tools\flac.exe
Additional command line options : -8 -V -T "ARTIST=%artist%" -T "TITLE=%title%" -T "ALBUM=%albumtitle%" -T "DATE=%year%" -T "TRACKNUMBER=%tracknr%" -T "TOTALTRACKS=%numtracks%" -T "GENRE=%genre%" -T "ALBUMARTIST=%albumartist%" -T "ALBUM ARTIST=%albumartist%" -T "COMMENT=EAC Secure Mode, Test & Copy, AccurateRip, FLAC -8" %source%
TOC of the extracted CD
     Track |   Start  |  Length  | Start sector | End sector
    ---------------------------------------------------------
        1  |  0:00.00 | 13:21.31 |         0    |    60105
        2  | 13:21.31 |  4:47.00 |     60106    |    81630
        3  | 18:08.31 |  4:48.74 |     81631    |   103304
        4  | 22:57.30 |  5:10.00 |    103305    |   126554
        5  | 28:07.30 | 10:14.00 |    126555    |   172604
        6  | 38:21.30 |  5:09.42 |    172605    |   195821
Track  1
     Filename D:\_EAC\Dannie Richmond & The Last Mingus Band - Plays Charles Mingus (1980) [FLAC] {CDSOL-6383}\01 - Fables Of Fobous.wav
     Pre-gap length  0:00:02.00
     Peak level 97.3 %
     Extraction speed 1.3 X
     Track quality 99.9 %
     Test CRC 60A81A03
     Copy CRC 60A81A03
     Accurately ripped (confidence 1)  [437615DD]  (AR v2)
     Copy OK
Track  2
     Filename D:\_EAC\Dannie Richmond & The Last Mingus Band - Plays Charles Mingus (1980) [FLAC] {CDSOL-6383}\02 - Good Bye Pork Pye.wav
     Peak level 97.3 %
     Extraction speed 1.4 X
     Track quality 99.9 %
     Test CRC 1907A623
     Copy CRC 1907A623
     Accurately ripped (confidence 1)  [5684F2F5]  (AR v2)
     Copy OK
Track  3
     Filename D:\_EAC\Dannie Richmond & The Last Mingus Band - Plays Charles Mingus (1980) [FLAC] {CDSOL-6383}\03 - Nostalgia In Times Square.wav
     Peak level 97.3 %
     Extraction speed 1.7 X
     Track quality 100.0 %
     Test CRC A745620A
     Copy CRC A745620A
     Accurately ripped (confidence 1)  [6EE9491A]  (AR v2)
     Copy OK
Track  4
     Filename D:\_EAC\Dannie Richmond & The Last Mingus Band - Plays Charles Mingus (1980) [FLAC] {CDSOL-6383}\04 - Noddin' Your Head Blues.wav
     Peak level 97.3 %
     Extraction speed 1.8 X
     Track quality 100.0 %
     Test CRC A4EC736B
     Copy CRC A4EC736B
     Accurately ripped (confidence 1)  [D7668DE5]  (AR v2)
     Copy OK
Track  5
     Filename D:\_EAC\Dannie Richmond & The Last Mingus Band - Plays Charles Mingus (1980) [FLAC] {CDSOL-6383}\05 - Duke Ellington Sound Of Love.wav
     Peak level 97.3 %
     Extraction speed 2.1 X
     Track quality 100.0 %
     Test CRC C1E02110
     Copy CRC C1E02110
     Accurately ripped (confidence 1)  [91DDFF7F]  (AR v2)
     Copy OK
Track  6
     Filename D:\_EAC\Dannie Richmond & The Last Mingus Band - Plays Charles Mingus (1980) [FLAC] {CDSOL-6383}\06 - Wee.wav
     Peak level 97.3 %
     Extraction speed 2.1 X
     Track quality 100.0 %
     Test CRC AC16CA5E
     Copy CRC AC16CA5E
     Accurately ripped (confidence 1)  [7F4E3AA1]  (AR v2)
     Copy OK
All tracks accurately ripped
No errors occurred
End of status report
==== Log checksum EF48718D182A8D5D1695602554E5443AE7327DFCF566B3292FC2D59671D19F68 ====
 
 
Содержание индексной карты (.CUE)
REM GENRE Jazz
REM DATE 1980
REM DISCID 4B0A3206
REM COMMENT "ExactAudioCopy v1.1"
PERFORMER "Dannie Richmond & The Last Mingus Band"
TITLE "Plays Charles Mingus"
FILE "01 - Fables Of Fobous.wav" WAVE
  TRACK 01 AUDIO
    TITLE "Fables Of Fobous"
    PERFORMER "Dannie Richmond & The Last Mingus Band"
    FLAGS DCP
    INDEX 01 00:00:00
FILE "02 - Good Bye Pork Pye.wav" WAVE
  TRACK 02 AUDIO
    TITLE "Good Bye Pork Pye"
    PERFORMER "Dannie Richmond & The Last Mingus Band"
    FLAGS DCP
    INDEX 01 00:00:00
FILE "03 - Nostalgia In Times Square.wav" WAVE
  TRACK 03 AUDIO
    TITLE "Nostalgia In Times Square"
    PERFORMER "Dannie Richmond & The Last Mingus Band"
    FLAGS DCP
    INDEX 01 00:00:00
FILE "04 - Noddin' Your Head Blues.wav" WAVE
  TRACK 04 AUDIO
    TITLE "Noddin' Your Head Blues"
    PERFORMER "Dannie Richmond & The Last Mingus Band"
    FLAGS DCP
    INDEX 01 00:00:00
FILE "05 - Duke Ellington Sound Of Love.wav" WAVE
  TRACK 05 AUDIO
    TITLE "Duke Ellington Sound Of Love"
    PERFORMER "Dannie Richmond & The Last Mingus Band"
    FLAGS DCP
    INDEX 01 00:00:00
FILE "06 - Wee.wav" WAVE
  TRACK 06 AUDIO
    TITLE "Wee"
    PERFORMER "Dannie Richmond & The Last Mingus Band"
    FLAGS DCP
    INDEX 01 00:00:00
19:37
564
Нет комментариев. Ваш будет первым!