Вы используете незарегистрированную версию компонента "Вкладки"!

Поиск

(Post-Bop) Carl Allen - The Pursuer - 1994, FLAC (image+.cue), lossless

(Post-Bop) Carl Allen - The Pursuer - 1994, FLAC (image+.cue), lossless
Треклист:
•Carl Allen - The Pursuer•
Жанр: Post-Bop
Страна-производитель диска: USA
Год издания диска: 1994
Издатель (лейбл): Atlantic Recording Corporation
Номер по каталогу: 82572-2
Аудиокодек: FLAC (*.flac)
Тип рипа: image+.cue
Битрейт аудио: lossless
Продолжительность: 00:55:50
Источник (релизер): Рип с диска.
Наличие сканов в содержимом раздачи: да
Треклист:
01. The Pursuer
02. Hidden Agenda
03. Pinocchio
04. Alternative Thoughts
05. My Brotha
06. A Difference Of Opinion
07. Each One, Teach One
08. Preference Or Conviction
09. Amazing Grace
Personnel:
Carl Allen - dr
Vincent Herring - as,ss
Teodross Avery - ts,ss
Marcus Printup - tp
Ed Simon - p
Ben Wolfe - b
Special Guests:
George Coleman - ts
Steve Turre - tb, shells
 
Лог создания рипа
Exact Audio Copy V1.0 beta 3 from 29. August 2011
Отчёт EAC об извлечении, выполненном 9. января 2012, 15:37
Carl Allen / The Pursuer
Дисковод: Optiarc DVD RW AD-5200A Adapter: 0 ID: 1
Режим чтения : Достоверность
Использование точного потока : Да
Отключение кэша аудио : Да
Использование указателей C2 : Нет
Коррекция смещения при чтении : 48
Способность читать области Lead-in и Lead-out : Нет
Заполнение пропущенных сэмплов тишиной : Да
Удаление блоков с тишиной в начале и конце : Нет
При вычислениях CRC использовались нулевые сэмплы : Да
Интерфейс : Установленный внешний ASPI-интерфейс
Выходной формат : Пользовательский кодировщик
Выбранный битрейт : 128 kBit/s
Качество : Высокий
Добавление ID3-тега : Нет
Утилита сжатия : C:\Program Files\Exact Audio Copy\Flac\flac.exe
Дополнительные параметры : -V -8 -T "Genre=%genre%" -T "Artist=%artist%" -T "Title=%title%" -T "Album=%albumtitle%" -T "Date=%year%" -T "Tracknumber=%tracknr%" -T "Comment=%comment%" %source%
TOC извлечённого CD
Трек | Старт | Длительность | Начальный сектор | Конечный сектор
---------------------------------------------------------------------
1 | 0:00.32 | 5:22.05 | 32 | 24186
2 | 5:22.37 | 7:04.30 | 24187 | 56016
3 | 12:26.67 | 5:03.48 | 56017 | 78789
4 | 17:30.40 | 8:52.67 | 78790 | 118756
5 | 26:23.32 | 5:40.48 | 118757 | 144304
6 | 32:04.05 | 6:24.27 | 144305 | 173131
7 | 38:28.32 | 7:09.45 | 173132 | 205351
8 | 45:38.02 | 5:49.55 | 205352 | 231581
9 | 51:27.57 | 4:23.30 | 231582 | 251336
Характеристики диапазона извлечения и сообщения об ошибках
Выбранный диапазон
Имя файла F:\1994.Carl Allen - The Pursuer\Carl Allen - The Pursuer.wav
Пиковый уровень 94.4 %
Скорость извлечения 3.5 X
Качество диапазона 99.9 %
CRC теста 017DF330
CRC копии 017DF330
Копирование... OK
Ошибок не произошло
AccurateRip: сводка
Трек 1 : извлечено точно (доверие 3) [3E007146] (AR v1)
Трек 2 : извлечено точно (доверие 3) [9A5C7878] (AR v1)
Трек 3 : извлечено точно (доверие 3) [9F785B3D] (AR v1)
Трек 4 : извлечено точно (доверие 3) [1DFFA3D2] (AR v1)
Трек 5 : извлечено точно (доверие 3) [6F7E696F] (AR v1)
Трек 6 : извлечено точно (доверие 3) [0F936A9A] (AR v1)
Трек 7 : извлечено точно (доверие 3) [4B4CFB31] (AR v1)
Трек 8 : извлечено точно (доверие 3) [87B867B8] (AR v1)
Трек 9 : извлечено точно (доверие 3) [53EED4B9] (AR v1)
Все треки извлечены точно
Конец отчёта
==== Контрольная сумма отчёта 8FF5A7B3EE4CA0E7BC2E0267A545135831D826AA83B9AE4D02CD11642E1A8DD2 ====
 
Содержание индексной карты (.CUE)
REM GENRE Jazz
REM DATE 1994
REM DISCID 720D1709
REM COMMENT "ExactAudioCopy v1.0b3"
CATALOG 0075678257223
PERFORMER "Carl Allen"
TITLE "The Pursuer"
FILE "Carl Allen - The Pursuer.flac" WAVE
TRACK 01 AUDIO
TITLE "The pursuer"
PERFORMER "Carl Allen"
INDEX 00 00:00:00
INDEX 01 00:00:32
TRACK 02 AUDIO
TITLE "Hidden agenda"
PERFORMER "Carl Allen"
INDEX 00 05:22:27
INDEX 01 05:22:37
TRACK 03 AUDIO
TITLE "Pinocchio"
PERFORMER "Carl Allen"
INDEX 00 12:26:59
INDEX 01 12:26:67
TRACK 04 AUDIO
TITLE "Alternative thoughts"
PERFORMER "Carl Allen"
INDEX 00 17:30:29
INDEX 01 17:30:40
TRACK 05 AUDIO
TITLE "My brotha"
PERFORMER "Carl Allen"
INDEX 01 26:23:32
TRACK 06 AUDIO
TITLE "A difference of opinion"
PERFORMER "Carl Allen"
INDEX 00 32:04:04
INDEX 01 32:04:05
TRACK 07 AUDIO
TITLE "Each one, teach one"
PERFORMER "Carl Allen"
INDEX 01 38:28:32
TRACK 08 AUDIO
TITLE "Preference or conviction"
PERFORMER "Carl Allen"
INDEX 01 45:38:02
TRACK 09 AUDIO
TITLE "Amazing grace"
PERFORMER "Carl Allen"
INDEX 01 51:27:57
Any questions - support@pro-jazz.com.
Есть вопросы - support@pro-jazz.com
19:59
208
Нет комментариев. Ваш будет первым!