Вы используете незарегистрированную версию компонента "Вкладки"!

Поиск

(Post-Bop, Big Band) Thad Jones & Mel Lewis - Potpourri {1974} - 1995, FLAC (tracks+.cue), lossless

(Post-Bop, Big Band) Thad Jones & Mel Lewis - Potpourri {1974} - 1995, FLAC (tracks+.cue), lossless
Треклист:
♦ Thad Jones & Mel Lewis - Potpourri {1974} ♦
Жанр: Post-Bop, Big Band
Страна-производитель диска: Austria
Год издания: 1995
Издатель (лейбл): Sony Music / Columbia
Номер по каталогу: 471478 2
Аудиокодек: FLAC (*.flac)
Тип рипа: tracks+.cue
Битрейт аудио: lossless
Продолжительность: 00:44:32
Источник (релизер): Рип с диска.
Наличие сканов в содержимом раздачи: да
Треклист:
01. Blues In A Minute [08:34]
02. All My Yesterdays [04:39]
03. Quiet Lady [07:39]
04. Don't You Worry 'Bout A Thing [04:05]
05. For The Love Of Money [04:16]
06. Yours And Mine [03:50]
07. Ambiance [07:25]
08. Living For The City [04:01]
 
Лог создания рипа
Exact Audio Copy V1.0 beta 3 from 29. August 2011
EAC extraction logfile from 8. June 2013, 22:24
Thad Jones & Mel Lewis / Potpourri
Used drive : Optiarc DVD RW AD-5200A Adapter: 0 ID: 0
Read mode : Secure
Utilize accurate stream : Yes
Defeat audio cache : Yes
Make use of C2 pointers : No
Read offset correction : 48
Overread into Lead-In and Lead-Out : No
Fill up missing offset samples with silence : Yes
Delete leading and trailing silent blocks : No
Null samples used in CRC calculations : Yes
Used interface : Native Win32 interface for Win NT & 2000
Gap handling : Appended to previous track
Used output format : User Defined Encoder
Selected bitrate : 128 kBit/s
Quality : High
Add ID3 tag : No
Command line compressor : C:\Program Files\Exact Audio Copy\Flac\flac.exe
Additional command line options : -V -8 -T "Genre=%genre%" -T "Artist=%artist%" -T "Title=%title%" -T "Album=%albumtitle%" -T "Date=%year%" -T "Tracknumber=%tracknr%" -T "Comment=%comment%" %source%
TOC of the extracted CD
Track | Start | Length | Start sector | End sector
---------------------------------------------------------
1 | 0:00.00 | 8:34.00 | 0 | 38549
2 | 8:34.00 | 4:39.40 | 38550 | 59514
3 | 13:13.40 | 7:39.58 | 59515 | 93997
4 | 20:53.23 | 4:05.55 | 93998 | 112427
5 | 24:59.03 | 4:16.30 | 112428 | 131657
6 | 29:15.33 | 3:50.50 | 131658 | 148957
7 | 33:06.08 | 7:25.40 | 148958 | 182372
8 | 40:31.48 | 4:01.27 | 182373 | 200474
Track 1
Filename F:\1995.Thad Jones & Mel Lewis - Potpourri\01. Blues In A Minute.wav
Pre-gap length 0:00:02.00
Peak level 67.0 %
Extraction speed 2.7 X
Track quality 100.0 %
Test CRC 99729DF6
Copy CRC 99729DF6
Track not present in AccurateRip database
Copy OK
Track 2
Filename F:\1995.Thad Jones & Mel Lewis - Potpourri\02. All My Yesterdays.wav
Peak level 85.8 %
Extraction speed 2.6 X
Track quality 99.9 %
Test CRC 43A13921
Copy CRC 43A13921
Track not present in AccurateRip database
Copy OK
Track 3
Filename F:\1995.Thad Jones & Mel Lewis - Potpourri\03. Quiet Lady.wav
Peak level 75.9 %
Extraction speed 3.1 X
Track quality 99.9 %
Test CRC 5644E7D7
Copy CRC 5644E7D7
Track not present in AccurateRip database
Copy OK
Track 4
Filename F:\1995.Thad Jones & Mel Lewis - Potpourri\04. Don't You Worry 'Bout A Thing.wav
Peak level 78.3 %
Extraction speed 3.4 X
Track quality 100.0 %
Test CRC 6910B80F
Copy CRC 6910B80F
Track not present in AccurateRip database
Copy OK
Track 5
Filename F:\1995.Thad Jones & Mel Lewis - Potpourri\05. For The Love Of Money.wav
Peak level 69.2 %
Extraction speed 3.5 X
Track quality 100.0 %
Test CRC 12641401
Copy CRC 12641401
Track not present in AccurateRip database
Copy OK
Track 6
Filename F:\1995.Thad Jones & Mel Lewis - Potpourri\06. Yours And Mine.wav
Peak level 53.7 %
Extraction speed 3.5 X
Track quality 100.0 %
Test CRC 64473200
Copy CRC 64473200
Track not present in AccurateRip database
Copy OK
Track 7
Filename F:\1995.Thad Jones & Mel Lewis - Potpourri\07. Ambiance.wav
Peak level 69.9 %
Extraction speed 3.5 X
Track quality 99.9 %
Test CRC 8E81BB03
Copy CRC 8E81BB03
Track not present in AccurateRip database
Copy OK
Track 8
Filename F:\1995.Thad Jones & Mel Lewis - Potpourri\08. Living For The City.wav
Peak level 79.7 %
Extraction speed 3.1 X
Track quality 99.9 %
Test CRC 1936543F
Copy CRC 1936543F
Track not present in AccurateRip database
Copy OK
None of the tracks are present in the AccurateRip database
No errors occurred
End of status report
==== Log checksum BE4FCBC3C9AD6B392A38D9C13B92F3D3725F3BED9EE5126ECBA0E22782D2B898 ====
 
Содержание индексной карты (.CUE)
REM GENRE Jazz
REM DATE 1974
REM DISCID 710A7108
REM COMMENT "ExactAudioCopy v1.0b3"
PERFORMER "Thad Jones & Mel Lewis"
TITLE "Potpourri"
FILE "01. Blues In A Minute.wav" WAVE
TRACK 01 AUDIO
TITLE "Blues In A Minute"
PERFORMER "Thad Jones & Mel Lewis"
FLAGS DCP
INDEX 01 00:00:00
FILE "02. All My Yesterdays.wav" WAVE
TRACK 02 AUDIO
TITLE "All My Yesterdays"
PERFORMER "Thad Jones & Mel Lewis"
FLAGS DCP
INDEX 01 00:00:00
FILE "03. Quiet Lady.wav" WAVE
TRACK 03 AUDIO
TITLE "Quiet Lady"
PERFORMER "Thad Jones & Mel Lewis"
FLAGS DCP
INDEX 01 00:00:00
FILE "04. Don't You Worry 'Bout A Thing.wav" WAVE
TRACK 04 AUDIO
TITLE "Don't You Worry 'Bout A Thing"
PERFORMER "Thad Jones & Mel Lewis"
FLAGS DCP
INDEX 01 00:00:00
FILE "05. For The Love Of Money.wav" WAVE
TRACK 05 AUDIO
TITLE "For The Love Of Money"
PERFORMER "Thad Jones & Mel Lewis"
FLAGS DCP
INDEX 01 00:00:00
FILE "06. Yours And Mine.wav" WAVE
TRACK 06 AUDIO
TITLE "Yours And Mine"
PERFORMER "Thad Jones & Mel Lewis"
FLAGS DCP
INDEX 01 00:00:00
FILE "07. Ambiance.wav" WAVE
TRACK 07 AUDIO
TITLE "Ambiance"
PERFORMER "Thad Jones & Mel Lewis"
FLAGS DCP
INDEX 01 00:00:00
FILE "08. Living For The City.wav" WAVE
TRACK 08 AUDIO
TITLE "Living For The City"
PERFORMER "Thad Jones & Mel Lewis"
FLAGS DCP
INDEX 01 00:00:00
Any questions - support@pro-jazz.com. Есть вопросы - support@pro-jazz.com
21:40
263
Нет комментариев. Ваш будет первым!