Вы используете незарегистрированную версию компонента "Вкладки"!

Поиск

(Post-Bop / Avant-Garde) Rob Mazurek Quintet - Sound Is - 2009, FLAC (tracks+.cue), lossless

Треклист:
Rob Mazurek Quintet - Sound Is
Жанр: Post-Bop / Avant-Garde
Год выпуска : 2009
Лейбл: Delmark
Аудио кодек: FLAC
Тип рипа: tracks+.cue
Битрейт аудио: lossless
Продолжительность: 01:11:28
Рип: What CD


01. As If An Angel Fell From The Sky (6:51)
02. The Earthquake Tree (8:54)
03. Dragon Kites (7:07)
04. The Star Splitter (4:39)
05. The Hill (7:52)
06. Le Baiser (The Kiss) (3:16)
07. The Lightning Field (3:31)
08. Cinnamon Tree (4:49)
09. The Dream Rocker (3:06)
10. Beauty Wolf (5:56)
11. Microraptagonafly (6:42)
12. Aphrodite Rising (4:48)
13. The Field (3:04)
14. Nora Grace (0:55)

 
EAC
Exact Audio Copy V0.99 prebeta 4 from 23. January 2008
EAC extraction logfile from 16. May 2009, 11:08
Rob Mazurek Quintet / Sound Is
Used drive : HL-DT-STDVD-RAM GSA-H50N Adapter: 2 ID: 0
Read mode : Secure
Utilize accurate stream : Yes
Defeat audio cache : Yes
Make use of C2 pointers : No
Read offset correction : 102
Overread into Lead-In and Lead-Out : No
Fill up missing offset samples with silence : Yes
Delete leading and trailing silent blocks : No
Null samples used in CRC calculations : Yes
Used interface : Native Win32 interface for Win NT & 2000
Gap handling : Appended to previous track
Used output format : User Defined Encoder
Selected bitrate : 1024 kBit/s
Quality : High
Add ID3 tag : No
Command line compressor : C:\Program Files\FLAC\flac.exe
Additional command line options : -8 -V -T "ARTIST=%a" -T "TITLE=%t" -T "ALBUM=%g" -T "DATE=%y" -T "TRACKNUMBER=%n" -T "GENRE=%m" -T "COMMENT=EAC FLAC -8" %s
TOC of the extracted CD
Track | Start | Length | Start sector | End sector
---------------------------------------------------------
1 | 0:00.00 | 6:50.68 | 0 | 30817
2 | 6:50.68 | 8:53.42 | 30818 | 70834
3 | 15:44.35 | 7:06.38 | 70835 | 102822
4 | 22:50.73 | 4:38.47 | 102823 | 123719
5 | 27:29.45 | 7:52.17 | 123720 | 159136
6 | 35:21.62 | 3:15.42 | 159137 | 173803
7 | 38:37.29 | 3:31.18 | 173804 | 189646
8 | 42:08.47 | 4:49.21 | 189647 | 211342
9 | 46:57.68 | 3:05.43 | 211343 | 225260
10 | 50:03.36 | 5:56.03 | 225261 | 251963
11 | 55:59.39 | 6:42.30 | 251964 | 282143
12 | 62:41.69 | 4:48.00 | 282144 | 303743
13 | 67:29.69 | 3:03.50 | 303744 | 317518
14 | 70:33.44 | 0:54.67 | 317519 | 321635
Track 1
Filename C:\EAC Rips\Rob Mazurek Quintet - Sound Is (2009) [FLAC] {DE 586}\01 - As If An Angel Fell From The Sky.wav
Pre-gap length 0:00:02.00
Peak level 100.0 %
Track quality 100.0 %
Test CRC D5756D39
Copy CRC D5756D39
Track not present in AccurateRip database
Copy OK
Track 2
Filename C:\EAC Rips\Rob Mazurek Quintet - Sound Is (2009) [FLAC] {DE 586}\02 - The Earthquake Tree.wav
Peak level 100.0 %
Track quality 100.0 %
Test CRC 8F10826C
Copy CRC 8F10826C
Track not present in AccurateRip database
Copy OK
Track 3
Filename C:\EAC Rips\Rob Mazurek Quintet - Sound Is (2009) [FLAC] {DE 586}\03 - Dragon Kites.wav
Peak level 100.0 %
Track quality 100.0 %
Test CRC 8856E4AB
Copy CRC 8856E4AB
Track not present in AccurateRip database
Copy OK
Track 4
Filename C:\EAC Rips\Rob Mazurek Quintet - Sound Is (2009) [FLAC] {DE 586}\04 - The Star Splitter.wav
Peak level 100.0 %
Track quality 99.9 %
Test CRC 408CFC93
Copy CRC 408CFC93
Track not present in AccurateRip database
Copy OK
Track 5
Filename C:\EAC Rips\Rob Mazurek Quintet - Sound Is (2009) [FLAC] {DE 586}\05 - The Hill.wav
Peak level 100.0 %
Track quality 100.0 %
Test CRC 00360CC8
Copy CRC 00360CC8
Track not present in AccurateRip database
Copy OK
Track 6
Filename C:\EAC Rips\Rob Mazurek Quintet - Sound Is (2009) [FLAC] {DE 586}\06 - Le Baiser (The Kiss).wav
Peak level 74.2 %
Track quality 100.0 %
Test CRC 23281E64
Copy CRC 23281E64
Track not present in AccurateRip database
Copy OK
Track 7
Filename C:\EAC Rips\Rob Mazurek Quintet - Sound Is (2009) [FLAC] {DE 586}\07 - The Lightning Field.wav
Peak level 100.0 %
Track quality 100.0 %
Test CRC A75915AB
Copy CRC A75915AB
Track not present in AccurateRip database
Copy OK
Track 8
Filename C:\EAC Rips\Rob Mazurek Quintet - Sound Is (2009) [FLAC] {DE 586}\08 - Cinnamon Tree.wav
Peak level 100.0 %
Track quality 100.0 %
Test CRC 54EF698F
Copy CRC 54EF698F
Track not present in AccurateRip database
Copy OK
Track 9
Filename C:\EAC Rips\Rob Mazurek Quintet - Sound Is (2009) [FLAC] {DE 586}\09 - The Dream Rocker.wav
Peak level 100.0 %
Track quality 100.0 %
Test CRC CF4F76EB
Copy CRC CF4F76EB
Track not present in AccurateRip database
Copy OK
Track 10
Filename C:\EAC Rips\Rob Mazurek Quintet - Sound Is (2009) [FLAC] {DE 586}\10 - Beauty Wolf.wav
Peak level 99.0 %
Track quality 100.0 %
Test CRC 72B74C82
Copy CRC 72B74C82
Track not present in AccurateRip database
Copy OK
Track 11
Filename C:\EAC Rips\Rob Mazurek Quintet - Sound Is (2009) [FLAC] {DE 586}\11 - Microraptagonafly.wav
Peak level 99.4 %
Track quality 100.0 %
Test CRC A806BD61
Copy CRC A806BD61
Track not present in AccurateRip database
Copy OK
Track 12
Filename C:\EAC Rips\Rob Mazurek Quintet - Sound Is (2009) [FLAC] {DE 586}\12 - Aphrodite Rising.wav
Peak level 100.0 %
Track quality 100.0 %
Test CRC 14B8C631
Copy CRC 14B8C631
Track not present in AccurateRip database
Copy OK
Track 13
Filename C:\EAC Rips\Rob Mazurek Quintet - Sound Is (2009) [FLAC] {DE 586}\13 - The Field.wav
Peak level 100.0 %
Track quality 100.0 %
Test CRC 3B29A5C2
Copy CRC 3B29A5C2
Track not present in AccurateRip database
Copy OK
Track 14
Filename C:\EAC Rips\Rob Mazurek Quintet - Sound Is (2009) [FLAC] {DE 586}\14 - Nora Grace.wav
Peak level 100.0 %
Track quality 100.0 %
Test CRC 4574E30A
Copy CRC 4574E30A
Track not present in AccurateRip database
Copy OK
None of the tracks are present in the AccurateRip database
No errors occurred
End of status report
 
CUE
REM GENRE Jazz
REM DATE 2009
REM DISCID AB10C00E
REM COMMENT "ExactAudioCopy v0.99pb4"
PERFORMER "Rob Mazurek Quintet"
TITLE "Sound Is"
FILE "01 - As If An Angel Fell From The Sky.wav" WAVE
TRACK 01 AUDIO
TITLE "As If An Angel Fell From The Sky"
PERFORMER "Rob Mazurek Quintet"
FLAGS DCP
INDEX 01 00:00:00
FILE "02 - The Earthquake Tree.wav" WAVE
TRACK 02 AUDIO
TITLE "The Earthquake Tree"
PERFORMER "Rob Mazurek Quintet"
FLAGS DCP
INDEX 01 00:00:00
FILE "03 - Dragon Kites.wav" WAVE
TRACK 03 AUDIO
TITLE "Dragon Kites"
PERFORMER "Rob Mazurek Quintet"
FLAGS DCP
INDEX 01 00:00:00
FILE "04 - The Star Splitter.wav" WAVE
TRACK 04 AUDIO
TITLE "The Star Splitter"
PERFORMER "Rob Mazurek Quintet"
FLAGS DCP
INDEX 01 00:00:00
FILE "05 - The Hill.wav" WAVE
TRACK 05 AUDIO
TITLE "The Hill"
PERFORMER "Rob Mazurek Quintet"
FLAGS DCP
INDEX 01 00:00:00
FILE "06 - Le Baiser (The Kiss).wav" WAVE
TRACK 06 AUDIO
TITLE "Le Baiser (The Kiss)"
PERFORMER "Rob Mazurek Quintet"
FLAGS DCP
INDEX 01 00:00:00
FILE "07 - The Lightning Field.wav" WAVE
TRACK 07 AUDIO
TITLE "The Lightning Field"
PERFORMER "Rob Mazurek Quintet"
FLAGS DCP
INDEX 01 00:00:00
FILE "08 - Cinnamon Tree.wav" WAVE
TRACK 08 AUDIO
TITLE "Cinnamon Tree"
PERFORMER "Rob Mazurek Quintet"
FLAGS DCP
INDEX 01 00:00:00
FILE "09 - The Dream Rocker.wav" WAVE
TRACK 09 AUDIO
TITLE "The Dream Rocker"
PERFORMER "Rob Mazurek Quintet"
FLAGS DCP
INDEX 01 00:00:00
FILE "10 - Beauty Wolf.wav" WAVE
TRACK 10 AUDIO
TITLE "Beauty Wolf"
PERFORMER "Rob Mazurek Quintet"
FLAGS DCP
INDEX 01 00:00:00
FILE "11 - Microraptagonafly.wav" WAVE
TRACK 11 AUDIO
TITLE "Microraptagonafly"
PERFORMER "Rob Mazurek Quintet"
FLAGS DCP
INDEX 01 00:00:00
FILE "12 - Aphrodite Rising.wav" WAVE
TRACK 12 AUDIO
TITLE "Aphrodite Rising"
PERFORMER "Rob Mazurek Quintet"
FLAGS DCP
INDEX 01 00:00:00
FILE "13 - The Field.wav" WAVE
TRACK 13 AUDIO
TITLE "The Field"
PERFORMER "Rob Mazurek Quintet"
FLAGS DCP
INDEX 01 00:00:00
FILE "14 - Nora Grace.wav" WAVE
TRACK 14 AUDIO
TITLE "Nora Grace"
PERFORMER "Rob Mazurek Quintet"
FLAGS DCP
INDEX 01 00:00:00

Jason Adasiewicz - Vibraphone
John Herndon - Percussion, Drums
Matthew Lux - Guitar (Bass)
Rob Mazurek - Synthesizer, Piano, Cornet
Any questions -> support@pro-jazz.com. По всем вопросам пишите -> support@pro-jazz.com
12:50
189
Нет комментариев. Ваш будет первым!