Вы используете незарегистрированную версию компонента "Вкладки"!

Поиск

(Post-Bop / Avant-Garde Jazz) Gerry Hemingway Quartet - The Whimbler - 2005, FLAC (tracks+.cue), lossless

Треклист:
Gerry Hemingway Quartet - The Whimbler
Жанр: Post-Bop / Avant-Garde
Лейбл: Clean Feed
Год выпуска : 2005
Аудио кодек: FLAC
Тип рипа: tracks+.cue
Битрейт аудио: lossless
Продолжительность: 01:05:26
Рип: What CD


01. Waitin (7:58)
02. Rallier (6:36)
03. The Current Underneath (9:09)
04. Pumbum (6:05)
05. The Whimbler (8:19)
06. Spektiv (6:04)
07. Curlycue (11:35)
08. In The Distance (3:55)
09. Kimkwella (5:47)

 
EAC
Exact Audio Copy V0.99 prebeta 4 from 23. January 2008
EAC extraction logfile from 3. January 2009, 20:42
Gerry Hemingway Quartet / The Whimbler
Used drive : HL-DT-STDVD-RAM GSA-H20L Adapter: 1 ID: 0
Read mode : Secure
Utilize accurate stream : Yes
Defeat audio cache : Yes
Make use of C2 pointers : No
Read offset correction : 102
Overread into Lead-In and Lead-Out : No
Fill up missing offset samples with silence : Yes
Delete leading and trailing silent blocks : No
Null samples used in CRC calculations : Yes
Used interface : Native Win32 interface for Win NT & 2000
Gap handling : Appended to previous track
Used output format : User Defined Encoder
Selected bitrate : 320 kBit/s
Quality : High
Add ID3 tag : No
Command line compressor : C:\Programme\Exact Audio Copy\Flac\flac.exe
Additional command line options : -V -8 -T "artist=%a" -T "title=%t" -T "album=%g" -T "date=%y" -T "tracknumber=%n" -T "genre=%m" %s
TOC of the extracted CD
Track | Start | Length | Start sector | End sector
---------------------------------------------------------
1 | 0:00.00 | 7:57.40 | 0 | 35814
2 | 7:57.40 | 6:35.40 | 35815 | 65479
3 | 14:33.05 | 9:09.17 | 65480 | 106671
4 | 23:42.22 | 6:05.00 | 106672 | 134046
5 | 29:47.22 | 8:18.58 | 134047 | 171454
6 | 38:06.05 | 6:03.55 | 171455 | 198734
7 | 44:09.60 | 11:34.60 | 198735 | 250844
8 | 55:44.45 | 3:54.72 | 250845 | 268466
9 | 59:39.42 | 5:46.50 | 268467 | 294466
Track 1
Filename C:\EACrips\Gerry Hemingway Quartet - The Whimbler\Waitin.wav
Pre-gap length 0:00:02.00
Peak level 99.4 %
Track quality 100.0 %
Test CRC 700829FD
Copy CRC 700829FD
Track not present in AccurateRip database
Copy OK
Track 2
Filename C:\EACrips\Gerry Hemingway Quartet - The Whimbler\Rallier.wav
Pre-gap length 0:00:02.73
Peak level 99.4 %
Track quality 100.0 %
Test CRC 5CBCC2D7
Copy CRC 5CBCC2D7
Track not present in AccurateRip database
Copy OK
Track 3
Filename C:\EACrips\Gerry Hemingway Quartet - The Whimbler\The Current Underneath.wav
Pre-gap length 0:00:03.72
Peak level 99.4 %
Track quality 99.9 %
Test CRC 5AB87575
Copy CRC 5AB87575
Track not present in AccurateRip database
Copy OK
Track 4
Filename C:\EACrips\Gerry Hemingway Quartet - The Whimbler\Pumbum.wav
Pre-gap length 0:00:01.21
Peak level 99.4 %
Track quality 100.0 %
Test CRC 721170BC
Copy CRC 721170BC
Track not present in AccurateRip database
Copy OK
Track 5
Filename C:\EACrips\Gerry Hemingway Quartet - The Whimbler\The Whimbler.wav
Pre-gap length 0:00:02.73
Peak level 99.4 %
Track quality 99.9 %
Test CRC 60678652
Copy CRC 60678652
Track not present in AccurateRip database
Copy OK
Track 6
Filename C:\EACrips\Gerry Hemingway Quartet - The Whimbler\Spektiv.wav
Pre-gap length 0:00:02.72
Peak level 99.4 %
Track quality 100.0 %
Test CRC 69DA3A39
Copy CRC 69DA3A39
Track not present in AccurateRip database
Copy OK
Track 7
Filename C:\EACrips\Gerry Hemingway Quartet - The Whimbler\Curlycue.wav
Pre-gap length 0:00:04.72
Peak level 99.4 %
Track quality 100.0 %
Test CRC FC47A9FE
Copy CRC FC47A9FE
Track not present in AccurateRip database
Copy OK
Track 8
Filename C:\EACrips\Gerry Hemingway Quartet - The Whimbler\In The Distance.wav
Pre-gap length 0:00:04.72
Peak level 55.8 %
Track quality 100.0 %
Test CRC E405158C
Copy CRC E405158C
Track not present in AccurateRip database
Copy OK
Track 9
Filename C:\EACrips\Gerry Hemingway Quartet - The Whimbler\Kimkwella.wav
Pre-gap length 0:00:00.70
Peak level 99.4 %
Track quality 99.9 %
Test CRC 0D666B1E
Copy CRC 0D666B1E
Track not present in AccurateRip database
Copy OK
None of the tracks are present in the AccurateRip database
No errors occurred
End of status report

Ellery Eskelin - Sax (Alto), Sax (Tenor)
Gerry Hemingway - Composer, Bandleader, Drums, Producer
Mark Helias - Bass (Electric), Bass (Acoustic)
Herb Robertson - Trumpet
Any questions -> support@pro-jazz.com. По всем вопросам пишите -> support@pro-jazz.com
11:38
205
Нет комментариев. Ваш будет первым!