Вы используете незарегистрированную версию компонента "Вкладки"!

Поиск

(Post-Bop, Avant-Garde Jazz) [CD] John Tchicai • Charlie Kohlhase Quintet (Dave Bryant, John Turner, Harvey Wihrt) - Life Overflowing - 1999, FLAC (tracks+.cue), lossless

Треклист:
John Tchicai • Charlie Kohlhase Quintet / Life Overflowing
Жанр: Post-Bop, Avant-Garde Jazz
Носитель: CD
Страна-производитель диска (релиза): U.S.A.
Год издания: 1999
Издатель (лейбл): Nada Music
Номер по каталогу: nada 001
Аудиокодек: FLAC (*.flac)
Тип рипа: tracks+.cue
Битрейт аудио: lossless
Продолжительность: 1:12:25
Источник (релизер): я
Наличие сканов в содержимом раздачи: да
Треклист:
1. Scholer’s Fountain of Life II (John Tchicai) 5:52
2. His Tulips Were Soft As Berries (Margriet Naber) 8:19
3. Detour (Dave Bryant) 6:51
4. The International Wingo Conspiracy (Charlie Kohlhase) 5:26
5. Blood Count (Billy Strayhorn) 6:23
6. Slow Down Boreas (John Tchicai) 4:29
7. Cancel Values (John Tchicai / Margriet Naber) 9:25
8. 84 Year Orbit (John Tchicai) 3:55
9. Framework (Charlie Kohlhase) 6:52
10. Kneep Bop (Charlie Kohlhase) 8:21
11. Tecoloutla Child (John Tchicai) 6:33
Recorded at Pete’s Basement Studio in Norwood, MA on December 6th & 7th, 1998.
John Tchicai – Tenor & Alto Saxophones
Charlie Kohlhase – Alto & Baritone Saxophones
Dave Bryant – Keyboards
John Turner – Double Bass
Harvey Wihrt – Drums
 
Лог создания рипа
Exact Audio Copy V1.1 from 23. June 2015
EAC extraction logfile from 7. August 2015, 12:58
John Tchicai • Charlie Kohlhase Quintet / Life Overflowing
Used drive : SlimtypeeNAU508 5 Adapter: 1 ID: 1
Read mode : Secure
Utilize accurate stream : Yes
Defeat audio cache : Yes
Make use of C2 pointers : No
Read offset correction : 6
Overread into Lead-In and Lead-Out : No
Fill up missing offset samples with silence : Yes
Delete leading and trailing silent blocks : No
Null samples used in CRC calculations : Yes
Used interface : Native Win32 interface for Win NT & 2000
Gap handling : Appended to previous track
Used output format : User Defined Encoder
Selected bitrate : 768 kBit/s
Quality : High
Add ID3 tag : No
Command line compressor : C:\Program Files (x86)\Exact Audio Copy\Flac\flac.exe
Additional command line options : -8 -V -T "ARTIST=%artist%" -T "TITLE=%title%" -T "ALBUM=%albumtitle%" -T "DATE=%year%" -T "TRACKNUMBER=%tracknr%" -T "TOTALTRACKS=%numtracks%" -T "GENRE=%genre%" -T "ALBUMARTIST=%albumartist%" -T "ALBUM ARTIST=%albumartist%" -T "COMMENT=EAC Secure Mode, Test & Copy, AccurateRip, FLAC -8" %source%
TOC of the extracted CD
Track | Start | Length | Start sector | End sector
---------------------------------------------------------
1 | 0:00.00 | 5:51.53 | 0 | 26377
2 | 5:51.53 | 8:18.63 | 26378 | 63790
3 | 14:10.41 | 6:50.63 | 63791 | 94603
4 | 21:01.29 | 5:26.22 | 94604 | 119075
5 | 26:27.51 | 6:22.57 | 119076 | 147782
6 | 32:50.33 | 4:29.27 | 147783 | 167984
7 | 37:19.60 | 9:25.04 | 167985 | 210363
8 | 46:44.64 | 3:54.54 | 210364 | 227967
9 | 50:39.43 | 6:51.59 | 227968 | 258851
10 | 57:31.27 | 8:20.45 | 258852 | 296396
11 | 65:51.72 | 6:32.70 | 296397 | 325866
Track 1
Filename C:\EAC rips\01 - Scholer's Fountain of Life II.wav
Pre-gap length 0:00:02.00
Peak level 100.0 %
Extraction speed 2.4 X
Track quality 100.0 %
Test CRC 994FB168
Copy CRC 994FB168
Track not present in AccurateRip database
Copy OK
Track 2
Filename C:\EAC rips\02 - His Tulips Were Soft As Berries.wav
Peak level 98.3 %
Extraction speed 2.8 X
Track quality 100.0 %
Test CRC 570EF17D
Copy CRC 570EF17D
Track not present in AccurateRip database
Copy OK
Track 3
Filename C:\EAC rips\03 - Detour.wav
Peak level 93.2 %
Extraction speed 3.1 X
Track quality 100.0 %
Test CRC 61FD3BB7
Copy CRC 61FD3BB7
Track not present in AccurateRip database
Copy OK
Track 4
Filename C:\EAC rips\04 - The International Wingo Conspiracy.wav
Peak level 90.4 %
Extraction speed 3.3 X
Track quality 100.0 %
Test CRC C0F1DF6D
Copy CRC C0F1DF6D
Track not present in AccurateRip database
Copy OK
Track 5
Filename C:\EAC rips\05 - Blood Count.wav
Peak level 96.5 %
Extraction speed 3.1 X
Track quality 99.9 %
Test CRC C3A3CD9B
Copy CRC C3A3CD9B
Track not present in AccurateRip database
Copy OK
Track 6
Filename C:\EAC rips\06 - Slow Down Boreas.wav
Peak level 96.9 %
Extraction speed 3.6 X
Track quality 100.0 %
Test CRC 3806BBEC
Copy CRC 3806BBEC
Track not present in AccurateRip database
Copy OK
Track 7
Filename C:\EAC rips\07 - Cancel Values.wav
Peak level 100.0 %
Extraction speed 2.8 X
Track quality 99.9 %
Test CRC 1C27CF5B
Copy CRC 1C27CF5B
Track not present in AccurateRip database
Copy OK
Track 8
Filename C:\EAC rips\08 - 84 Year Orbit.wav
Peak level 93.5 %
Extraction speed 3.1 X
Track quality 99.9 %
Test CRC 9EB3C494
Copy CRC 9EB3C494
Track not present in AccurateRip database
Copy OK
Track 9
Filename C:\EAC rips\09 - Framework.wav
Peak level 63.2 %
Extraction speed 4.4 X
Track quality 100.0 %
Test CRC 0C235ECC
Copy CRC 0C235ECC
Track not present in AccurateRip database
Copy OK
Track 10
Filename C:\EAC rips\10 - Knee Bop.wav
Peak level 100.0 %
Extraction speed 4.6 X
Track quality 100.0 %
Test CRC 6C44E7A9
Copy CRC 6C44E7A9
Track not present in AccurateRip database
Copy OK
Track 11
Filename C:\EAC rips\11 - Tecoloutla Child.wav
Peak level 95.6 %
Extraction speed 4.4 X
Track quality 100.0 %
Test CRC 36AE4A17
Copy CRC 36AE4A17
Track not present in AccurateRip database
Copy OK
None of the tracks are present in the AccurateRip database
No errors occurred
End of status report
---- CUETools DB Plugin V2.1.6
[CTDB TOCID: pa.oC.EZKY_BBc7Pukx78rhr9Ms-] disk not present in database
Submit result: pa.oC.EZKY_BBc7Pukx78rhr9Ms- has been uploaded
==== Log checksum 7D1ABD63054A3326F3F92B28C3DAA7871D697B9A4A162EE55B84743E0D793B0F ====
 
Содержание индексной карты (.CUE)
REM GENRE "Nada Music 001"
REM DATE 1999
REM DISCID 9610F80B
REM COMMENT "ExactAudioCopy v1.1"
PERFORMER "John Tchicai • Charlie Kohlhase Quintet"
TITLE "Life Overflowing"
FILE "01 - Scholer's Fountain of Life II.wav" WAVE
TRACK 01 AUDIO
TITLE "Scholer's Fountain of Life II"
PERFORMER "John Tchicai • Charlie Kohlhase Quintet"
INDEX 01 00:00:00
FILE "02 - His Tulips Were Soft As Berries.wav" WAVE
TRACK 02 AUDIO
TITLE "His Tulips Were Soft As Berries"
PERFORMER "John Tchicai • Charlie Kohlhase Quintet"
INDEX 01 00:00:00
FILE "03 - Detour.wav" WAVE
TRACK 03 AUDIO
TITLE "Detour"
PERFORMER "John Tchicai • Charlie Kohlhase Quintet"
INDEX 01 00:00:00
FILE "04 - The International Wingo Conspiracy.wav" WAVE
TRACK 04 AUDIO
TITLE "The International Wingo Conspiracy"
PERFORMER "John Tchicai • Charlie Kohlhase Quintet"
INDEX 01 00:00:00
FILE "05 - Blood Count.wav" WAVE
TRACK 05 AUDIO
TITLE "Blood Count"
PERFORMER "John Tchicai • Charlie Kohlhase Quintet"
INDEX 01 00:00:00
FILE "06 - Slow Down Boreas.wav" WAVE
TRACK 06 AUDIO
TITLE "Slow Down Boreas"
PERFORMER "John Tchicai • Charlie Kohlhase Quintet"
INDEX 01 00:00:00
FILE "07 - Cancel Values.wav" WAVE
TRACK 07 AUDIO
TITLE "Cancel Values"
PERFORMER "John Tchicai • Charlie Kohlhase Quintet"
INDEX 01 00:00:00
FILE "08 - 84 Year Orbit.wav" WAVE
TRACK 08 AUDIO
TITLE "84 Year Orbit"
PERFORMER "John Tchicai • Charlie Kohlhase Quintet"
INDEX 01 00:00:00
FILE "09 - Framework.wav" WAVE
TRACK 09 AUDIO
TITLE "Framework"
PERFORMER "John Tchicai • Charlie Kohlhase Quintet"
INDEX 01 00:00:00
FILE "10 - Knee Bop.wav" WAVE
TRACK 10 AUDIO
TITLE "Knee Bop"
PERFORMER "John Tchicai • Charlie Kohlhase Quintet"
INDEX 01 00:00:00
FILE "11 - Tecoloutla Child.wav" WAVE
TRACK 11 AUDIO
TITLE "Tecoloutla Child"
PERFORMER "John Tchicai • Charlie Kohlhase Quintet"
INDEX 01 00:00:00
По всем вопросам пишите личное сообщение пользователю M0p94ok.
15:05
187
Нет комментариев. Ваш будет первым!