Вы используете незарегистрированную версию компонента "Вкладки"!

Поиск

(Post-Bop / Avant-Garde / ECM) Gary Peacock - Shift In The Wind - 1981, FLAC (image+.cue), lossless

(Post-Bop / Avant-Garde / ECM) Gary Peacock - Shift In The Wind - 1981, FLAC (image+.cue), lossless
Треклист:
Gary Peacock - Shift In The Wind
Жанр: Post-Bop / Avant-Garde / ECM
Год выпуска диска: 1981
Производитель диска: USA (ECM 1165)
Аудио кодек: FLAC
Тип рипа: image+.cue
Битрейт аудио: lossless
Продолжительность: 47:34
Gary Peacock bass
Art Lande piano
Eliot Zigmund drums
1. So Green
2. Fractions
3. Last First
4. Shift In The Wind
5. Centers
6. Caverns Beneath The Zoth
7. Valentine
Recorded February 1980
 
AMG Review
Bassist Gary Peacock teams up with the underrated pianist Art Lande and drummer Eliot Zigmund for a set of group originals that emphasize close communication between the trio members, really an extension on the innovations of Bill Evans. The interplay between these masterful musicians is more significant than the actual compositions and rewards repeats listenings. ~ Scott Yanow, AMG
 
EAC Report
Exact Audio Copy V0.99 prebeta 4 from 23. January 2008
EAC extraction logfile from 23. September 2009, 22:10
Gary Peacock / Shift in the Wind
Used drive : TSSTcorpCD/DVDW SH-S182M Adapter: 2 ID: 0
Read mode : Secure
Utilize accurate stream : Yes
Defeat audio cache : Yes
Make use of C2 pointers : No
Read offset correction : 6
Overread into Lead-In and Lead-Out : No
Fill up missing offset samples with silence : Yes
Delete leading and trailing silent blocks : No
Null samples used in CRC calculations : Yes
Used interface : Installed external ASPI interface
Used output format : User Defined Encoder
Selected bitrate : 1024 kBit/s
Quality : High
Add ID3 tag : No
Command line compressor : C:\Program Files\FLAC\flac.exe
Additional command line options : -6 -V -T "ARTIST=%a" -T "TITLE=%t" -T "ALBUM=%g" -T "DATE=%y" -T "TRACKNUMBER=%n" -T "GENRE=%m" -T "COMMENT=EAC FLAC -6" %s
TOC of the extracted CD
Track | Start | Length | Start sector | End sector
---------------------------------------------------------
1 | 0:00.32 | 6:15.05 | 32 | 28161
2 | 6:15.37 | 5:03.08 | 28162 | 50894
3 | 11:18.45 | 8:15.62 | 50895 | 88081
4 | 19:34.32 | 5:51.00 | 88082 | 114406
5 | 25:25.32 | 6:56.63 | 114407 | 145669
6 | 32:22.20 | 10:01.12 | 145670 | 190756
7 | 42:23.32 | 5:10.23 | 190757 | 214029
Range status and errors
Selected range
Filename C:\Documents and Settings\Igor\My Documents\My Music\eac\Gary Peacock - Shift in the Wind.wav
Peak level 84.3 %
Range quality 100.0 %
Test CRC 3DCDCECF
Copy CRC 3DCDCECF
Copy OK
No errors occurred
AccurateRip summary
Track 1 cannot be verified as accurate (confidence 2) [A1BF0DAC], AccurateRip returned [B14DBBAC]
Track 2 cannot be verified as accurate (confidence 2) [69AD6084], AccurateRip returned [5777075C]
Track 3 cannot be verified as accurate (confidence 2) [E090B4CE], AccurateRip returned [12F8E14E]
Track 4 cannot be verified as accurate (confidence 2) [4558C3F4], AccurateRip returned [AD6BD454]
Track 5 cannot be verified as accurate (confidence 2) [BAE01B89], AccurateRip returned [56FFF7B1]
Track 6 cannot be verified as accurate (confidence 2) [F562B11B], AccurateRip returned [8DD3ABD3]
Track 7 cannot be verified as accurate (confidence 2) [246B762E], AccurateRip returned [2AE17D86]
No tracks could be verified as accurate
You may have a different pressing from the one(s) in the database
End of status report
Any questions -> support@pro-jazz.com. По всем вопросам пишите -> support@pro-jazz.com
01:06
228
Нет комментариев. Ваш будет первым!