Поиск

(Post-Bop, Afro-Cuban Jazz) Cal Tjader - Concerts In The Sun (1960) - 2002, FLAC (image+.cue), lossless

(Post-Bop, Afro-Cuban Jazz) Cal Tjader - Concerts In The Sun (1960) - 2002, FLAC (image+.cue), lossless
Треклист:
Cal Tjader – Concerts In The Sun (1960)
Жанр: Post-Bop, Afro-Cuban Jazz
Год издания: 2002
Издатель (лейбл): Fantasy
Номер по каталогу: FCD-9688-2
Аудиокодек: FLAC (*.flac)
Тип рипа: image+.cue
Битрейт аудио: lossless
Продолжительность: 53:52
Rip by barin99
Наличие сканов в содержимом раздачи: да
Треклист:
01. Love For Sale (5:11)
02. Goodbye (4:40)
03. Raccoon Straits (6:00)
04. Walkin With Wally (7:15)
05. My Romance (5:10)
06. Sigmund Sten Groove (5:29)
07. Cubano Chant (4:26)
08. Afro Blue (5:04)
09. Tumbao (5:43)
10. Day In, Day Out (4:55)
Personnel:
Cal Tjader - vib
Lonnie Hewitt - p
Eddie Coleman, Victor Venegas - b
Willie Bobo - d
Mongo Santamaria - cga, bgo
 
 
Лог создания рипа
Exact Audio Copy V0.99 prebeta 4 from 23. January 2008
EAC extraction logfile from 26. October 2009, 22:38
Cal Tjader / Concerts in the Sun
Used drive : HL-DT-STRW/DVD GCC-4242N Adapter: 1 ID: 0
Read mode : Secure
Utilize accurate stream : Yes
Defeat audio cache : Yes
Make use of C2 pointers : No
Read offset correction : 102
Overread into Lead-In and Lead-Out : No
Fill up missing offset samples with silence : Yes
Delete leading and trailing silent blocks : No
Null samples used in CRC calculations : Yes
Used interface : Native Win32 interface for Win NT & 2000
Used output format : Internal WAV Routines
Sample format : 44.100 Hz; 16 Bit; Stereo
TOC of the extracted CD
Track | Start | Length | Start sector | End sector
---------------------------------------------------------
1 | 0:00.00 | 5:11.00 | 0 | 23324
2 | 5:11.00 | 4:39.57 | 23325 | 44306
3 | 9:50.57 | 5:59.73 | 44307 | 71304
4 | 15:50.55 | 7:14.47 | 71305 | 103901
5 | 23:05.27 | 5:09.38 | 103902 | 127114
6 | 28:14.65 | 5:28.70 | 127115 | 151784
7 | 33:43.60 | 4:26.15 | 151785 | 171749
8 | 38:10.00 | 5:03.52 | 171750 | 194526
9 | 43:13.52 | 5:43.35 | 194527 | 220286
10 | 48:57.12 | 4:54.50 | 220287 | 242386
Range status and errors
Selected range
Filename C:\_\EAC_Out\Out\Cal Tjader - Concerts in the Sun\Cal Tjader - Concerts in the Sun.wav
Peak level 99.9 %
Range quality 100.0 %
Copy CRC A08D293D
Copy OK
No errors occurred
AccurateRip summary
Track 1 not present in database
Track 2 not present in database
Track 3 not present in database
Track 4 not present in database
Track 5 not present in database
Track 6 not present in database
Track 7 not present in database
Track 8 not present in database
Track 9 not present in database
Track 10 not present in database
None of the tracks are present in the AccurateRip database
End of status report
 
Содержание индексной карты (.CUE)
REM GENRE Jazz"
REM DATE 1960
REM DISCID 960C9F0A
REM COMMENT "ExactAudioCopy v0.99pb4"
PERFORMER "Cal Tjader"
TITLE "Concerts In The Sun"
FILE "Cal Tjader - Concerts In The Sun.flac" WAVE
TRACK 01 AUDIO
TITLE "Love For Sale"
PERFORMER "Cal Tjader"
INDEX 01 00:00:00
TRACK 02 AUDIO
TITLE "Goodbye"
PERFORMER "Cal Tjader"
INDEX 01 05:11:00
TRACK 03 AUDIO
TITLE "Raccoon Straits"
PERFORMER "Cal Tjader"
INDEX 01 09:50:57
TRACK 04 AUDIO
TITLE "Walkin With Wally"
PERFORMER "Cal Tjader"
INDEX 00 15:49:05
INDEX 01 15:50:55
TRACK 05 AUDIO
TITLE "My Romance"
PERFORMER "Cal Tjader"
INDEX 01 23:05:27
TRACK 06 AUDIO
TITLE "Sigmund Sten Groove"
PERFORMER "Cal Tjader"
INDEX 01 28:14:65
TRACK 07 AUDIO
TITLE "Cubano Chant"
PERFORMER "Cal Tjader"
INDEX 00 33:41:37
INDEX 01 33:43:60
TRACK 08 AUDIO
TITLE "Afro Blue"
PERFORMER "Cal Tjader"
INDEX 01 38:10:00
TRACK 09 AUDIO
TITLE "Tumbao"
PERFORMER "Cal Tjader"
INDEX 01 43:13:52
TRACK 10 AUDIO
TITLE "Day In, Day Out"
PERFORMER "Cal Tjader"
INDEX 00 48:54:62
INDEX 01 48:57:12
04:06
399
Нет комментариев. Ваш будет первым!