Поиск

(Post-Bop, African Jazz, World Fusion) Abdullah Ibrahim - Cape Town Songs: The Very Best of Abdullah Ibrahim (1979-1997) - 2000, APE (image+.cue), lossless

(Post-Bop, African Jazz, World Fusion) Abdullah Ibrahim - Cape Town Songs: The Very Best of Abdullah Ibrahim (1979-1997) - 2000, APE (image+.cue), lossless
Треклист:
Abdullah Ibrahim - Cape Town Songs: The Very Best of Abdullah Ibrahim
Жанр: Post-Bop, African Jazz, World Fusion
Страна-производитель диска: Великобритания
Год издания: 2000
Издатель (лейбл): Nascente
Номер по каталогу: NSCD 070
Страна: ЮАР
Аудиокодек: APE (*.ape)
Тип рипа: image+.cue
Битрейт аудио: lossless
Продолжительность: 65:53
Источник (релизер): JamesBrown (hqshare)
Наличие сканов в содержимом раздачи: да
Треклист:
01. Imam (Ibrahim) - 6:10
02. Zikr (Ibrahim) - 5:28
03. For Monk (Ibrahim) - 4:40
04. Zimbabwe (Ibrahim) - 4:18
05. Mandela (Ibrahim) - 4:59
06. The Mountain (Ibrahim) - 3:21
07. Pule (Rain) (Ibrahim) - 4:53
08. Chisa (Ibrahim) - 4:25
09. Toi-Toi (Ibrahim) - 3:28
10. Calypso Minor (Ibrahim) - 4:58
11. Tsidi (Ibrahim) - 3:15
12. Cape Town (Ibrahim) - 6:29
13. African Marketplace (Ibrahim) - 5:23
14. Mountain of the Night (Ibrahim) - 4:08
 
Лог создания рипа
Registo da extracção do EAC de 21. Maio 2005, 17:18 para CD
Abdullah Ibrahim / Cape Town Songs: The very Best of
Unidade utilizada : PLEXTOR DVDR PX-708A Adapter: 1 ID: 0
Modo de Leitura : Seguro SEM C2, fluxo preciso, desligar cache
Correcção de offset de leitura/escrita combinada : 0
Sobrescrever no Lead-In e Lead-Out : Não
Formato de saída utilizado : C:\Programas\Monkey's Audio\MAC.exe (Encoder Monkey's Audio Lossless)
Normal Lossless Compression
Outras opções :
Preencher offset samples em falta com silêncio : Sim
Eliminar blocos de silêncio dianteiros e finais : Não
Interface nativa Win32 para Win NT & 2000
Estado e erros dos limites
Limites Seleccionados
Nome de ficheiro C:\Documents and Settings\Jaime\Ambiente de trabalho\backup dvd\CDImage.wav
Nível de pico 99.8 %
Qualidade dos limites 100.0 %
CRC DDB6A62B
Cópia OK
Não ocorreram erros
Fim do relatório de estado
 
Содержание индексной карты (.CUE)
PERFORMER "Abdullah Ibrahim"
TITLE "Cape Town Songs: The Very Best of Abdullah Ibrahim"
FILE "Abdullah Ibrahim - Cape Town Songs.wav" WAVE
TRACK 01 AUDIO
TITLE "Imam"
PERFORMER "Abdullah Ibrahim"
INDEX 01 00:00:00
TRACK 02 AUDIO
TITLE "Zikr"
PERFORMER "Abdullah Ibrahim"
INDEX 00 06:07:71
INDEX 01 06:09:46
TRACK 03 AUDIO
TITLE "For Monk"
PERFORMER "Abdullah Ibrahim"
INDEX 00 11:35:66
INDEX 01 11:37:41
TRACK 04 AUDIO
TITLE "Zimbabwe"
PERFORMER "Abdullah Ibrahim"
INDEX 00 16:15:48
INDEX 01 16:17:23
TRACK 05 AUDIO
TITLE "Mandela"
PERFORMER "Abdullah Ibrahim"
INDEX 00 20:34:04
INDEX 01 20:35:54
TRACK 06 AUDIO
TITLE "The Mountain"
PERFORMER "Abdullah Ibrahim"
INDEX 00 25:32:73
INDEX 01 25:34:48
TRACK 07 AUDIO
TITLE "Pule (Rain)"
PERFORMER "Abdullah Ibrahim"
INDEX 00 28:53:45
INDEX 01 28:55:21
TRACK 08 AUDIO
TITLE "Chisa"
PERFORMER "Abdullah Ibrahim"
INDEX 00 33:46:72
INDEX 01 33:48:47
TRACK 09 AUDIO
TITLE "Toi-Toi"
PERFORMER "Abdullah Ibrahim"
INDEX 00 38:12:28
INDEX 01 38:14:03
TRACK 10 AUDIO
TITLE "Calypso Minor"
PERFORMER "Abdullah Ibrahim"
INDEX 00 41:39:73
INDEX 01 41:41:48
TRACK 11 AUDIO
TITLE "Tsidi"
PERFORMER "Abdullah Ibrahim"
INDEX 00 46:37:45
INDEX 01 46:39:20
TRACK 12 AUDIO
TITLE "Cape Town"
PERFORMER "Abdullah Ibrahim"
INDEX 00 49:52:43
INDEX 01 49:54:17
TRACK 13 AUDIO
TITLE "African Marketplace"
PERFORMER "Abdullah Ibrahim"
INDEX 00 56:21:12
INDEX 01 56:22:62
TRACK 14 AUDIO
TITLE "Mountain of the Night"
PERFORMER "Abdullah Ibrahim"
INDEX 00 61:43:68
INDEX 01 61:45:43
 
Об альбоме (сборнике)
This retrospective of Abdullah Ibrahim's life in music is not only a great introdcution to the music of a giant of jazz but a fantastic album in itself. Drawing on recordings from 1979 to 1997, it covers a period of exile in Ibrahim's life - residing in America to escape the apartheid regime in his native South Africa - and his eventual return home.
Ibrahim occupies an unusual position at the more compostitional end of the Jazz scale, insofar that he writes his music not for the music's sake but to depict scenes, places and people. In my view, he is a modern day Sibelius, Smetena or Dvorak - his minuature "tone poems" are clearly heartfelt evocations of his beloved homeland. Typical of this is quietly reflective "The Mountain" - an orchestral arrangement (From "African Suite") closes the album in the most beguilingly beautiful way possible.
Ibrahim's influences are clearly on show too. The self-explanatory (Both in a titular and musical sense) "For Monk" gives him a chance to show off his considerable pianistic talent, whilst tracks such as Pule and Chisa owe a debt, I think, to his mentor Duke Ellington. Whilst not on the Big Band scale of Ellington's compositions (Or Ibrahim's big band album "Ekapa Lodumo"), in these tracks Ibrahim's piano merely provides a musical home for his band members to launch their improvisatory sorties from.
This compilation comes highly recommended, showcasing every facet of a great musician: exceptional pianist; composer of inspirational and evocative music, deeply rooted in the rythyms and textures of South Africa; a great band leader. Above all though, you can hear the passion for his homeland - Listen to the beautiful final track and if you don't become completely enraptured, then there's something wrong with you.
04:08
549
Нет комментариев. Ваш будет первым!