Поиск

(Post-Bop, African Jazz) Abdullah Ibrahim - A celebration - 2004, FLAC (tracks+.cue), lossless

(Post-Bop, African Jazz) Abdullah Ibrahim - A celebration - 2004, FLAC (tracks+.cue), lossless
Треклист:
Abdullah Ibrahim - A celebration
Жанр: Post-Bop, African Jazz
Год выпуска диска: 2004
Аудио кодек: FLAC
Тип рипа: tracks+.cue
Битрейт аудио: lossless
Продолжительность: 68:29
Трэклист:
1. Ntsikana's Bell 06:05
2. Ishmael 06:15
3. The Perfumed Garden 03:57
4. Imam 06:07
5. Saud 05:54
6. Earth Bird 03:03
7. African Marketplace 08:17
8. Ancient Cape 04:37
9. Mountain Of The Night 03:33
10. Siya Hamba Namhlanje 03:28
11. Mannenberg Revisited 06:08
12. Mindif 06:36
13. Calypso Minor Remixed 04:29
Доп. информация: Альбом в честь 70-ти летия Abdullah Ibrahim-а
Cостав:
Abdullah Ibrahim piano, vocal, soprano sax, bamboo flute, compositions
with
John Betsch drums
Roy Brooks drums
Belden Bullock bass
Johnny Classens Kumalo vocal
Charles Davis sax
Johnny Dyani bass
Essiet Okun Essiet bass
Ricky Ford sax
George Gray drums
Craig Handy sax
Billy Higgins drums
Cecil McBee bass
Talib Qadr sax
Ben Riley drums
Carlos Ward sax, flute
and others
rec.: 1973-2004
 
скрытый текст
Отчёт EAC об извлечении, выполненном 9. марта 2008, 19:39 для диска:
Abdullah Ibrahim / A Celebration
Дисковод: TSSTcorpCDDVDW SH-S203D Adapter: 2 ID: 1
Режим чтения: Достоверный (C2: нет, Точный поток: да, Отключение кэша: да)
Коррекция смещения при чтении: 6
Способность читать области Lead-in и Lead-out : Нет
Выходной формат: Внутренние WAV-операции
44.100 Гц; 16 бит; стерео
Другие параметры:
Заполнение пропущенных сэмплов тишиной : Да
Удаление блоков с тишиной в начале и конце : Нет
Встроенный Win32-интерфейс для Win NT/2000
Трек 1
Имя файла D:\Music\RIP\(01) Ntsikana's Bell - Abdullah Ibrahim.wav
Пиковый уровень 97.3 %
Качество трека 100.0 %
CRC теста 8875D143
CRC копии 8875D143
Копирование... OK
Трек 2
Имя файла D:\Music\RIP\(02) Ishmael - Abdullah Ibrahim.wav
Пиковый уровень 70.5 %
Качество трека 100.0 %
CRC теста 29CF6016
CRC копии 29CF6016
Копирование... OK
Трек 3
Имя файла D:\Music\RIP\(03) The Perfumed Garden Wet With Rain - Abdullah Ibrahim.wav
Пиковый уровень 97.7 %
Качество трека 100.0 %
CRC теста BBA054E9
CRC копии BBA054E9
Копирование... OK
Трек 4
Имя файла D:\Music\RIP\(04) Imam - Abdullah Ibrahim.wav
Пиковый уровень 93.2 %
Качество трека 100.0 %
CRC теста E2C83E27
CRC копии E2C83E27
Копирование... OK
Трек 5
Имя файла D:\Music\RIP\(05) Saud - Abdullah Ibrahim.wav
Пиковый уровень 97.7 %
Качество трека 99.9 %
CRC теста 30261C7F
CRC копии 30261C7F
Копирование... OK
Трек 6
Имя файла D:\Music\RIP\(06) Earth Bird - Abdullah Ibrahim.wav
Пиковый уровень 97.7 %
Качество трека 100.0 %
CRC теста 9EEF26EA
CRC копии 9EEF26EA
Копирование... OK
Трек 7
Имя файла D:\Music\RIP\(07) African Market Place - Abdullah Ibrahim.wav
Пиковый уровень 97.7 %
Качество трека 100.0 %
CRC теста B10DE7D4
CRC копии B10DE7D4
Копирование... OK
Трек 8
Имя файла D:\Music\RIP\(08) Ancient Cape - Abdullah Ibrahim.wav
Пиковый уровень 84.6 %
Качество трека 100.0 %
CRC теста F4A5C04E
CRC копии F4A5C04E
Копирование... OK
Трек 9
Имя файла D:\Music\RIP\(09) The Mountain - Abdullah Ibrahim.wav
Пиковый уровень 88.9 %
Качество трека 100.0 %
CRC теста BF346F73
CRC копии BF346F73
Копирование... OK
Трек 10
Имя файла D:\Music\RIP\(10) Siya Hamba Namhlanje - Abdullah Ibrahim.wav
Пиковый уровень 97.7 %
Качество трека 100.0 %
CRC теста A4142644
CRC копии A4142644
Копирование... OK
Трек 11
Имя файла D:\Music\RIP\(11) Mannenberg Revisted - Abdullah Ibrahim.wav
Пиковый уровень 97.7 %
Качество трека 100.0 %
CRC теста 4DC715EA
CRC копии 4DC715EA
Копирование... OK
Трек 12
Имя файла D:\Music\RIP\(12) Mindif - Abdullah Ibrahim.wav
Пиковый уровень 97.6 %
Качество трека 99.9 %
CRC теста 098D3FC8
CRC копии 098D3FC8
Копирование... OK
Трек 13
Имя файла D:\Music\RIP\(13) Calypso Minor Remixed - Abdullah Ibrahim.wav
Пиковый уровень 64.8 %
Качество трека 100.0 %
CRC теста D2ACA133
CRC копии D2ACA133
Копирование... OK
Ошибок не произошло
Конец отчёта
З.Ы. Релиз не мой, я просто разместил объяву
05:36
510
Нет комментариев. Ваш будет первым!